JamToThis  
iTrader

Is your sharing ratio bad? Donate to our server costs and get upload credit!

Go Back   JamToThis > Bit Torrent Downloads > Video Bit Torrents

Reply
 
Thread Tools Display Modes
  (#1) Old
TheDoorsLegend TheDoorsLegend is offline
Trader Supreme
 
TheDoorsLegend's Avatar


Join Date: 11.17.12
User ID: 63129
Posts: 585
Location: Mexico

Trader Rating: 12

Rate This Trader!



UL: 328.94 GB
DL: 231.40 GB
Ratio: 1.42
Seed Points: 3,238.40

Sharing Ratio
Policy


Torrent Thank You's: 2,142
Thanked Posts: 382

Video - Audience KISS - Prague, Czech Republic 1996-12-15 - 07.30.18, 12:18 PM

Artist:
KISS

Show or Bootleg Title:
Prague, Czech Republic 1996-12-15

Show Venue:
Sportovni Hala

Source:
DVD - Audience

Video Quality/Production Info:
Video: B, Audio: B

Audio/Video Specs:
Video
ID : 224 (0xE0)
Format : MPEG Video
Format version : Version 2
Format profile : Main@Main
Format settings, BVOP : Yes
Format settings, Matrix : Default
Format settings, GOP : M=3, N=12
Format settings, picture st : Frame
Bit rate mode : Variable
Bit rate : 4 693 kb/s
Maximum bit rate : 9 800 kb/s
Width : 720 pixels
Height : 576 pixels
Display aspect ratio : 4:3
Frame rate : 25.000 FPS
Standard : PAL
Color space : YUV
Chroma subsampling : 4:2:0
Bit depth : 8 bits
Scan type : Interlaced
Scan order : Top Field First
Compression mode : Lossy
Bits/(Pixel*Frame) : 0.453
Time code of first frame : 00:00:00:00
Time code source : Group of pictures header
GOP, Open/Closed : Open
GOP, Open/Closed of first f : Closed
Stream size : 952 MiB (93%)

Audio
ID : 189 (0xBD)-128 (0x80)
Format : AC-3
Format/Info : Audio Coding 3
Format settings, Endianness : Big
Muxing mode : DVD-Video
Bit rate mode : Constant
Bit rate : 256 kb/s
Channel(s) : 2 channels
Channel positions : Front: L R
Sampling rate : 48.0 kHz
Frame rate : 31.250 FPS (1536 spf)
Bit depth : 16 bits
Compression mode : Lossy
Stream size : 51.9 MiB (5%)
Service kind : Complete Main

Format:
PAL

Set List/Chapters:
Deuce
King of The Night Time World
Do You Love Me
Calling Dr. Love
Watchin' You
Firehouse
I Stole Your Love
Shock Me
Let Me Go, Rock N' Roll
Shout It Out Loud
I Was Made For Lovin' You
C'mon And Love Me
Gene Solo
God of Thunder
New York Groove
Love Gun
1000,000 Years
Black Diamond
Detroit Rock City
Beth
Rock And Roll All Nite

Checksums or Fingerprints:
# MD5 checksums generated by MD5summer (http://www.md5summer.org)
# Generated 30/07/2018 02:03:57 p.m.

2355b42135606ebc1e8ebe8e841ee7d0 *VIDEO_TS/VIDEO_TS.BUP
2355b42135606ebc1e8ebe8e841ee7d0 *VIDEO_TS/VIDEO_TS.IFO
0deeb5c418b56577b6e66bfb6481c833 *VIDEO_TS/VIDEO_TS.VOB
e44ea8d79ec04983b1faa489b7a35b8d *VIDEO_TS/VTS_01_0.BUP
e44ea8d79ec04983b1faa489b7a35b8d *VIDEO_TS/VTS_01_0.IFO
7a39cc670e4eb66c984f92917b363662 *VIDEO_TS/VTS_01_0.VOB
80d987e9bd87a09c10b15a4e23186d18 *VIDEO_TS/VTS_01_1.VOB
a15a0ab6fd713d5d740f181882a745cf *VIDEO_TS/VTS_01_2.VOB
a1db14986608c2c4db2de18198fd3abb *VIDEO_TS/VTS_01_3.VOB
04b120335a34a3ab9255daec9df7c023 *VIDEO_TS/VTS_01_4.VOB
91faee254c8027f9fdbf1506211b7e89 *VIDEO_TS/VTS_01_5.VOB
Attached Images
This post has an attachment which you could see if you were registered.
This post has an attachment which you could see if you were registered.
This post has an attachment which you could see if you were registered.
This post has an attachment which you could see if you were registered.
This post has an attachment which you could see if you were registered.
Attached Files
This post has an attachment which you could see if you were registered.
Reply With Quote
  (#2) Old
Metal Asylum Metal Asylum is offline
Trader God
 
Metal Asylum's Avatar


Join Date: 05.16.10
User ID: 45488
Posts: 1,216

Trader Rating: 0

Rate This Trader!



UL: 3.36 TB
DL: 1.99 TB
Ratio: 1.69
Seed Points: 242,359.60

Sharing Ratio
Policy


Torrent Thank You's: 0
Thanked Posts: 632

07.31.18, 02:45 PM

Mondo Thanks!!
Reply With Quote
  (#3) Old
rarf6712 rarf6712 is offline
Rookie


Join Date: 07.31.18
User ID: 76409
Posts: 2

Trader Rating: 0

Rate This Trader!



UL: 5.36 GB
DL: 4.27 GB
Ratio: 1.25
Seed Points: 54.20

Sharing Ratio
Policy


Torrent Thank You's: 0
Thanked Posts: 1

thanks foe this concert - 08.03.18, 01:58 PM

Reply With Quote
  (#4) Old
gorgoroth666 gorgoroth666 is offline
Trader


Join Date: 11.24.12
User ID: 63228
Posts: 100

Trader Rating: 0

Rate This Trader!



UL: 0.00 kB
DL: 82.36 GB
Ratio: 0.00
Seed Points: 6.20

Sharing Ratio
Policy


Torrent Thank You's: 0
Thanked Posts: 81

08.14.18, 01:34 PM

thank you so much
Reply With Quote
Reply

Tags
1996-12-15, czech, kiss, prague, republic

Thread Tools
Display Modes

Posting Rules
You may not post new threads
You may not post replies
You may not post attachments
You may not edit your posts

BB code is On
Smilies are On
[IMG] code is On
HTML code is Off

Forum Jump

Similar Threads
Thread Thread Starter Forum Replies Last Post
Trade!!!! Muttlange Non-Bit Torrent Trading 3 08.22.13 05:58 AM
UK DVD trader abramlord Non-Bit Torrent Trading 5 05.22.13 01:51 AM
Here Is Part 2 Of My List All KISS waynesdvds Trade Lists 1 03.27.09 02:35 PM
Classic Heavy Rock & Metal + Kiss DVD's for Trade Bulletproof Music Trade Lists 10 12.22.08 05:52 AM



7.jpg


Powered by vBulletin® Version 3.8.5
Copyright ©2000 - 2018, Jelsoft Enterprises Ltd.

WEB HOSTING: Hosting 4 Less

vB Forum Feeds by CinVin

Copyright © 2004-2018 JamToThis.com

vBulletin Skin developed by: vBStyles.com