JamToThis  
iTrader

Is your sharing ratio bad? Donate to our server costs and get upload credit!

Go Back   JamToThis > Bit Torrent Downloads > Audio Bit Torrents > Pulled Audio Torrents

Closed Thread
 
Thread Tools Display Modes
  (#1) Old
DavidLeeRoth DavidLeeRoth is offline
Rookie


Join Date: 11.26.05
User ID: 6891
Posts: 6

Trader Rating: 0

Rate This Trader!



UL: 13.02 GB
DL: 2.17 GB
Ratio: 6.00
Seed Points: 0.00

Sharing Ratio
Policy


Torrent Thank You's: 20
Thanked Posts: 0

Queensryche - Ryche N Roll - 2 CD in Milano, Italy - 09.03.06, 04:37 PM

Would someone please upload more Ryche?


-------------------------------------------------------------------
Queensryche - Ryche 'N' Roll - CD1
-------------------------------------------------------------------

Artist...............: Queensryche
Album................: Ryche 'N' Roll - CD1
Genre................:
Source...............: NMR
Year.................: 1990
Ripper...............: NMR
Codec................: Free Lossless Audio Codec (FLAC)
Version..............: reference libFLAC 1.1.2 20050205
Quality..............: Lossless, (avg. compression: 59 %)
Channels.............: Stereo / 44100 HZ / 16 Bit
Tags.................: VorbisComment
Information..........:

Ripped by............: NMR
Posted by............: on 8/9/2006
News Server..........:
News Group(s)........:

Included.............: NFO, MD5, PLS, M3U


-------------------------------------------------------------------
Tracklisting
-------------------------------------------------------------------

01. (00:04:59) Queensryche - Resistance
02. (00:04:57) Queensryche - Walk In The Shadows
03. (00:05:46) Queensryche - Best I Can
04. (00:05:50) Queensryche - Empire
05. (00:05:55) Queensryche - The Thin Line
06. (00:06:14) Queensryche - Jet City Woman
07. (00:09:40) Queensryche - Roads To Madness
08. (00:00:55) Queensryche - I Remember Now
09. (00:01:28) Queensryche - Anarchy - X
10. (00:04:59) Queensryche - Revolution Calling
11. (00:04:10) Queensryche - Operation: Mind Crime
12. (00:03:47) Queensryche - Speak
13. (00:05:13) Queensryche - Spreading The Disease
14. (00:06:06) Queensryche - The Mission

Playing Time.........: 01:10:00
Total Size...........: 417.46 MB

NFO generated on.....: 8/9/2006 1:00:09 AM


:: Generated by Music NFO Builder v1.17 - www.nfobuilder.com ::
-------------------------------------------------------------------
Queensryche - Ryche 'N' Roll - CD2
-------------------------------------------------------------------

Artist...............: Queensryche
Album................: Ryche 'N' Roll - CD2
Genre................: rock
Source...............: NMR
Year.................: 1990
Ripper...............: NMR
Codec................: Free Lossless Audio Codec (FLAC)
Version..............: reference libFLAC 1.1.2 20050205
Quality..............: Lossless, (avg. compression: 56 %)
Channels.............: Stereo / 44100 HZ / 16 Bit
Tags.................: VorbisComment
Information..........:

Ripped by............: NMR
Posted by............: on 8/9/2006
News Server..........:
News Group(s)........:

Included.............: NFO, MD5, PLS, M3U


-------------------------------------------------------------------
Tracklisting
-------------------------------------------------------------------

01. (00:11:47) Queensryche - Suite Sister Mary
02. (00:03:25) Queensryche - The Needle Lies
03. (00:01:15) Queensryche - Electric Requiem
04. (00:04:27) Queensryche - Breaking The Silence
05. (00:04:06) Queensryche - I Don't Believe In Love
06. (00:01:19) Queensryche - Waiting For 22
07. (00:01:37) Queensryche - My Empty Room
08. (00:08:19) Queensryche - Eyes Of A Stranger
09. (00:07:31) Queensryche - Silent Lucidity
10. (00:05:01) Queensryche - Take Hold Of The Flame

Playing Time.........: 00:48:46
Total Size...........: 282.35 MB

NFO generated on.....: 8/9/2006 1:00:09 AM


:: Generated by Music NFO Builder v1.17 - www.nfobuilder.com ::

Last edited by TwoFoolsAMinute; 09.03.06 at 11:57 PM.
  (#2) Old
TwoFoolsAMinute TwoFoolsAMinute is offline
The Devil Himself
 
TwoFoolsAMinute's Avatar


Join Date: 09.18.04
User ID: 77
Posts: 857
Location: The Heartland

Trader Rating: 154

Rate This Trader!



UL: 252.51 GB
DL: 164.46 GB
Ratio: 1.54
Seed Points: 1.20

Sharing Ratio
Policy


Torrent Thank You's: 139
Thanked Posts: 2

09.03.06, 04:44 PM

Well, that post is a little confusing, but most of the info is there.

Could you please post the md5 signatures in the first post and the date of the show. Ideally I like to see the post start with something like this:

Band
Date
Venue
City
Title

But, you have most of that info. The only important thing missing really is the date....and the md5 signatures.
  (#3) Old
DavidLeeRoth DavidLeeRoth is offline
Rookie


Join Date: 11.26.05
User ID: 6891
Posts: 6

Trader Rating: 0

Rate This Trader!



UL: 13.02 GB
DL: 2.17 GB
Ratio: 6.00
Seed Points: 0.00

Sharing Ratio
Policy


Torrent Thank You's: 20
Thanked Posts: 0

09.03.06, 04:48 PM

Queensryche
Sometime in 1990
Unknown venue, somewhere in Milano
Milano, Italy
Ryche N Roll


I found the logs and cues: here they are


EAC extraction logfile from 2. July 2006, 20:11 for CD
Queensryche / Ryche 'N' Roll - CD1

Used drive : JLMS DVD-ROM LTD163D Adapter: 0 ID: 1
Read mode : Secure with NO C2, accurate stream, disable cache
Read offset correction : 594
Overread into Lead-In and Lead-Out : No

Used output format : C:\Program Files\FLAC\flac.exe (User Defined Encoder)
320 kBit/s
Additional command line options : -T "artist=%a" -T "title=%t" -T "album=%g" -T "date=%y" -T "tracknumber=%n" -T "genre=%m" %s

Other options :
Fill up missing offset samples with silence : Yes
Delete leading and trailing silent blocks : No
Installed external ASPI interface


Track 1
Filename g:\eac stuff\(Queensryche - Ryche 'N' Roll - CD1) - 01 - Resistance.wav

Pre-gap length 0:00:02.33

Peak level 100.0 %
Track quality 100.0 %
Test CRC 1C7F2111
Copy CRC 1C7F2111
Copy OK

Track 2
Filename g:\eac stuff\(Queensryche - Ryche 'N' Roll - CD1) - 02 - Walk In The Shadows.wav

Peak level 100.0 %
Track quality 99.9 %
Test CRC CC7D2EDB
Copy CRC CC7D2EDB
Copy OK

Track 3
Filename g:\eac stuff\(Queensryche - Ryche 'N' Roll - CD1) - 03 - Best I Can.wav

Peak level 98.9 %
Track quality 100.0 %
Test CRC 53583C12
Copy CRC 53583C12
Copy OK

Track 4
Filename g:\eac stuff\(Queensryche - Ryche 'N' Roll - CD1) - 04 - Empire.wav

Peak level 100.0 %
Track quality 99.9 %
Test CRC 8E06147C
Copy CRC 8E06147C
Copy OK

Track 5
Filename g:\eac stuff\(Queensryche - Ryche 'N' Roll - CD1) - 05 - The Thin Line.wav

Peak level 83.6 %
Track quality 100.0 %
Test CRC 1E8A3016
Copy CRC 1E8A3016
Copy OK

Track 6
Filename g:\eac stuff\(Queensryche - Ryche 'N' Roll - CD1) - 06 - Jet City Woman.wav

Peak level 92.1 %
Track quality 99.9 %
Test CRC B5117D77
Copy CRC B5117D77
Copy OK

Track 7
Filename g:\eac stuff\(Queensryche - Ryche 'N' Roll - CD1) - 07 - Roads To Madness.wav

Peak level 97.0 %
Track quality 99.9 %
Test CRC 7FF28DB9
Copy CRC 7FF28DB9
Copy OK

Track 8
Filename g:\eac stuff\(Queensryche - Ryche 'N' Roll - CD1) - 08 - I Remember Now.wav

Peak level 87.6 %
Track quality 100.0 %
Test CRC 526A3F77
Copy CRC 526A3F77
Copy OK

Track 9
Filename g:\eac stuff\(Queensryche - Ryche 'N' Roll - CD1) - 09 - Anarchy - X.wav

Peak level 96.9 %
Track quality 100.0 %
Test CRC F6889A9C
Copy CRC F6889A9C
Copy OK

Track 10
Filename g:\eac stuff\(Queensryche - Ryche 'N' Roll - CD1) - 10 - Revolution Calling.wav

Peak level 93.6 %
Track quality 99.9 %
Test CRC EBE41A9B
Copy CRC EBE41A9B
Copy OK

Track 11
Filename g:\eac stuff\(Queensryche - Ryche 'N' Roll - CD1) - 11 - Operation- Mind Crime.wav

Peak level 87.5 %
Track quality 100.0 %
Test CRC 4B0F3E52
Copy CRC 4B0F3E52
Copy OK

Track 12
Filename g:\eac stuff\(Queensryche - Ryche 'N' Roll - CD1) - 12 - Speak.wav

Peak level 88.8 %
Track quality 100.0 %
Test CRC 7DC1596C
Copy CRC 7DC1596C
Copy OK

Track 13
Filename g:\eac stuff\(Queensryche - Ryche 'N' Roll - CD1) - 13 - Spreading The Disease.wav

Peak level 99.7 %
Track quality 100.0 %
Test CRC BFA95E02
Copy CRC BFA95E02
Copy OK

Track 14
Filename g:\eac stuff\(Queensryche - Ryche 'N' Roll - CD1) - 14 - The Mission.wav

Peak level 87.5 %
Track quality 99.9 %
Test CRC 8BE0D460
Copy CRC 8BE0D460
Copy OK

No errors occured


End of status report
EAC extraction logfile from 4. July 2006, 19:49 for CD
Queensryche / Ryche 'N' Roll - CD2

Used drive : JLMS DVD-ROM LTD163D Adapter: 0 ID: 1
Read mode : Secure with NO C2, accurate stream, disable cache
Read offset correction : 594
Overread into Lead-In and Lead-Out : No

Used output format : C:\Program Files\FLAC\flac.exe (User Defined Encoder)
320 kBit/s
Additional command line options : -T "artist=%a" -T "title=%t" -T "album=%g" -T "date=%y" -T "tracknumber=%n" -T "genre=%m" %s

Other options :
Fill up missing offset samples with silence : Yes
Delete leading and trailing silent blocks : No
Installed external ASPI interface


Track 1
Filename g:\eac stuff\(Queensryche - Ryche 'N' Roll - CD2) - 01 - Suite Sister Mary.wav

Pre-gap length 0:00:02.33

Peak level 100.0 %
Track quality 100.0 %
Test CRC 07EFECAE
Copy CRC 07EFECAE
Copy OK

Track 2
Filename g:\eac stuff\(Queensryche - Ryche 'N' Roll - CD2) - 02 - The Needle Lies.wav

Peak level 100.0 %
Track quality 100.0 %
Test CRC A26F1FD9
Copy CRC A26F1FD9
Copy OK

Track 3
Filename g:\eac stuff\(Queensryche - Ryche 'N' Roll - CD2) - 03 - Electric Requiem.wav

Peak level 84.1 %
Track quality 100.0 %
Test CRC DF9924C9
Copy CRC DF9924C9
Copy OK

Track 4
Filename g:\eac stuff\(Queensryche - Ryche 'N' Roll - CD2) - 04 - Breaking The Silence.wav

Peak level 93.4 %
Track quality 100.0 %
Test CRC 008DF7EA
Copy CRC 008DF7EA
Copy OK

Track 5
Filename g:\eac stuff\(Queensryche - Ryche 'N' Roll - CD2) - 05 - I Don't Believe In Love.wav

Peak level 93.1 %
Track quality 100.0 %
Test CRC B91938AE
Copy CRC B91938AE
Copy OK

Track 6
Filename g:\eac stuff\(Queensryche - Ryche 'N' Roll - CD2) - 06 - Waiting For 22.wav

Peak level 100.0 %
Track quality 100.0 %
Test CRC 1E99EFEF
Copy CRC 1E99EFEF
Copy OK

Track 7
Filename g:\eac stuff\(Queensryche - Ryche 'N' Roll - CD2) - 07 - My Empty Room.wav

Peak level 88.5 %
Track quality 100.0 %
Test CRC 1CE3DB41
Copy CRC 1CE3DB41
Copy OK

Track 8
Filename g:\eac stuff\(Queensryche - Ryche 'N' Roll - CD2) - 08 - Eyes Of A Stranger.wav

Peak level 100.0 %
Track quality 100.0 %
Test CRC FDA6947E
Copy CRC FDA6947E
Copy OK

Track 9
Filename g:\eac stuff\(Queensryche - Ryche 'N' Roll - CD2) - 09 - Silent Lucidity.wav

Peak level 100.0 %
Track quality 100.0 %
Test CRC FF6FE9E2
Copy CRC FF6FE9E2
Copy OK

Track 10
Filename g:\eac stuff\(Queensryche - Ryche 'N' Roll - CD2) - 10 - Take Hold Of The Flame.wav

Peak level 80.1 %
Track quality 100.0 %
Test CRC CA9E07E2
Copy CRC CA9E07E2
Copy OK

No errors occured


End of status report
REM DATE 1990
REM DISCID CB10680E
REM COMMENT "ExactAudioCopy v0.95b4"
PERFORMER "Queensryche"
TITLE "Ryche 'N' Roll - CD1"
FILE "(Queensryche - Ryche 'N' Roll - CD1) - 01 - Resistance.wav" WAVE
TRACK 01 AUDIO
TITLE "Resistance"
PERFORMER "Queensryche"
PREGAP 00:00:33
INDEX 01 00:00:00
FILE "(Queensryche - Ryche 'N' Roll - CD1) - 02 - Walk In The Shadows.wav" WAVE
TRACK 02 AUDIO
TITLE "Walk In The Shadows"
PERFORMER "Queensryche"
INDEX 01 00:00:00
FILE "(Queensryche - Ryche 'N' Roll - CD1) - 03 - Best I Can.wav" WAVE
TRACK 03 AUDIO
TITLE "Best I Can"
PERFORMER "Queensryche"
INDEX 01 00:00:00
FILE "(Queensryche - Ryche 'N' Roll - CD1) - 04 - Empire.wav" WAVE
TRACK 04 AUDIO
TITLE "Empire"
PERFORMER "Queensryche"
INDEX 01 00:00:00
FILE "(Queensryche - Ryche 'N' Roll - CD1) - 05 - The Thin Line.wav" WAVE
TRACK 05 AUDIO
TITLE "The Thin Line"
PERFORMER "Queensryche"
INDEX 01 00:00:00
FILE "(Queensryche - Ryche 'N' Roll - CD1) - 06 - Jet City Woman.wav" WAVE
TRACK 06 AUDIO
TITLE "Jet City Woman"
PERFORMER "Queensryche"
INDEX 01 00:00:00
FILE "(Queensryche - Ryche 'N' Roll - CD1) - 07 - Roads To Madness.wav" WAVE
TRACK 07 AUDIO
TITLE "Roads To Madness"
PERFORMER "Queensryche"
INDEX 01 00:00:00
FILE "(Queensryche - Ryche 'N' Roll - CD1) - 08 - I Remember Now.wav" WAVE
TRACK 08 AUDIO
TITLE "I Remember Now"
PERFORMER "Queensryche"
INDEX 01 00:00:00
FILE "(Queensryche - Ryche 'N' Roll - CD1) - 09 - Anarchy - X.wav" WAVE
TRACK 09 AUDIO
TITLE "Anarchy - X"
PERFORMER "Queensryche"
INDEX 01 00:00:00
FILE "(Queensryche - Ryche 'N' Roll - CD1) - 10 - Revolution Calling.wav" WAVE
TRACK 10 AUDIO
TITLE "Revolution Calling"
PERFORMER "Queensryche"
INDEX 01 00:00:00
FILE "(Queensryche - Ryche 'N' Roll - CD1) - 11 - Operation- Mind Crime.wav" WAVE
TRACK 11 AUDIO
TITLE "Operation: Mind Crime"
PERFORMER "Queensryche"
INDEX 01 00:00:00
FILE "(Queensryche - Ryche 'N' Roll - CD1) - 12 - Speak.wav" WAVE
TRACK 12 AUDIO
TITLE "Speak"
PERFORMER "Queensryche"
INDEX 01 00:00:00
FILE "(Queensryche - Ryche 'N' Roll - CD1) - 13 - Spreading The Disease.wav" WAVE
TRACK 13 AUDIO
TITLE "Spreading The Disease"
PERFORMER "Queensryche"
INDEX 01 00:00:00
FILE "(Queensryche - Ryche 'N' Roll - CD1) - 14 - The Mission.wav" WAVE
TRACK 14 AUDIO
TITLE "The Mission"
PERFORMER "Queensryche"
INDEX 01 00:00:00

REM GENRE rock
REM DATE 1990
REM DISCID 900B6E0A
REM COMMENT "ExactAudioCopy v0.95b4"
PERFORMER "Queensryche"
TITLE "Ryche 'N' Roll - CD2"
FILE "(Queensryche - Ryche 'N' Roll - CD2) - 01 - Suite Sister Mary.wav" WAVE
TRACK 01 AUDIO
TITLE "Suite Sister Mary"
PERFORMER "Queensryche"
PREGAP 00:00:33
INDEX 01 00:00:00
FILE "(Queensryche - Ryche 'N' Roll - CD2) - 02 - The Needle Lies.wav" WAVE
TRACK 02 AUDIO
TITLE "The Needle Lies"
PERFORMER "Queensryche"
INDEX 01 00:00:00
FILE "(Queensryche - Ryche 'N' Roll - CD2) - 03 - Electric Requiem.wav" WAVE
TRACK 03 AUDIO
TITLE "Electric Requiem"
PERFORMER "Queensryche"
INDEX 01 00:00:00
FILE "(Queensryche - Ryche 'N' Roll - CD2) - 04 - Breaking The Silence.wav" WAVE
TRACK 04 AUDIO
TITLE "Breaking The Silence"
PERFORMER "Queensryche"
INDEX 01 00:00:00
FILE "(Queensryche - Ryche 'N' Roll - CD2) - 05 - I Don't Believe In Love.wav" WAVE
TRACK 05 AUDIO
TITLE "I Don't Believe In Love"
PERFORMER "Queensryche"
INDEX 01 00:00:00
FILE "(Queensryche - Ryche 'N' Roll - CD2) - 06 - Waiting For 22.wav" WAVE
TRACK 06 AUDIO
TITLE "Waiting For 22"
PERFORMER "Queensryche"
INDEX 01 00:00:00
FILE "(Queensryche - Ryche 'N' Roll - CD2) - 07 - My Empty Room.wav" WAVE
TRACK 07 AUDIO
TITLE "My Empty Room"
PERFORMER "Queensryche"
INDEX 01 00:00:00
FILE "(Queensryche - Ryche 'N' Roll - CD2) - 08 - Eyes Of A Stranger.wav" WAVE
TRACK 08 AUDIO
TITLE "Eyes Of A Stranger"
PERFORMER "Queensryche"
INDEX 01 00:00:00
FILE "(Queensryche - Ryche 'N' Roll - CD2) - 09 - Silent Lucidity.wav" WAVE
TRACK 09 AUDIO
TITLE "Silent Lucidity"
PERFORMER "Queensryche"
INDEX 01 00:00:00
FILE "(Queensryche - Ryche 'N' Roll - CD2) - 10 - Take Hold Of The Flame.wav" WAVE
TRACK 10 AUDIO
TITLE "Take Hold Of The Flame"
PERFORMER "Queensryche"
INDEX 01 00:00:00
  (#4) Old
DavidLeeRoth DavidLeeRoth is offline
Rookie


Join Date: 11.26.05
User ID: 6891
Posts: 6

Trader Rating: 0

Rate This Trader!



UL: 13.02 GB
DL: 2.17 GB
Ratio: 6.00
Seed Points: 0.00

Sharing Ratio
Policy


Torrent Thank You's: 20
Thanked Posts: 0

09.03.06, 04:51 PM

MD5 signatures are included in the .md5 files.
  (#5) Old
jgdrag jgdrag is offline
Trader
 
jgdrag's Avatar


Join Date: 07.16.05
User ID: 4657
Posts: 161

Trader Rating: 0

Rate This Trader!



UL: 240.53 GB
DL: 283.09 GB
Ratio: 0.85
Seed Points: 0.00

Sharing Ratio
Policy


Torrent Thank You's: 0
Thanked Posts: 1

09.03.06, 08:28 PM

Thanks for the Ryche
Closed Thread

Tags
cd, italy, milano, queensryche, roll, ryche

Thread Tools
Display Modes

Posting Rules
You may not post new threads
You may not post replies
You may not post attachments
You may not edit your posts

BB code is On
Smilies are On
[IMG] code is On
HTML code is Off

Forum Jump

Similar Threads
Thread Thread Starter Forum Replies Last Post
van halen milano Italy 30 jan 1995 dvd 1984 Requests 2 01.14.09 04:20 PM
van halen milano Italy 30 jan 1995 dvd Roby Left Hand Video Bit Torrents 22 06.11.06 06:55 AM
Van Halen-Breaking The Balance, Jan. 30, 1995. Milano, Italy & various U.S. 1990-1994 vhbeing Audio Bit Torrents 3 04.24.06 10:43 AM



6.jpg


Powered by vBulletin® Version 3.8.5
Copyright ©2000 - 2017, Jelsoft Enterprises Ltd.

WEB HOSTING: Hosting 4 Less

vB Forum Feeds by CinVin

Copyright © 2004-2017 JamToThis.com

vBulletin Skin developed by: vBStyles.com