JamToThis  
iTrader

Is your sharing ratio bad? Donate to our server costs and get upload credit!

Go Back   JamToThis > Bit Torrent Downloads > Video Bit Torrents

Closed Thread
 
Thread Tools Display Modes
  (#1) Old
Born Again Born Again is offline
Trader
 
Born Again's Avatar


Join Date: 10.31.09
User ID: 41495
Posts: 139

Trader Rating: 18

Rate This Trader!



UL: 716.23 GB
DL: 267.13 GB
Ratio: 2.68
Seed Points: 5,488.60

Sharing Ratio
Policy


Torrent Thank You's: 1,631
Thanked Posts: 82

MTV Headbangers Ball Thrash&Speed-2 - 1991-1993 - 10.13.15, 09:23 AM

Artist:
MTV Headbangers Ball Thrash&Speed-2

Show or Bootleg Title:
1991-1993

Show Venue:


Source:
DVD - Pro Shot

Video Quality/Production Info:


Audio/Video Specs:
General
Complete name : D:\Thrash-Speed 2\VIDEO_TS\VTS_01_1.VOB
Format : MPEG-PS
File size : 470 MiB
Duration : 6mn 45s
Overall bit rate mode : Variable
Overall bit rate : 9 716 Kbps

Video
ID : 224 (0xE0)
Format : MPEG Video
Format version : Version 2
Format profile : Main@Main
Format settings, BVOP : No
Format settings, Matrix : Default
Format settings, GOP : N=10
Format settings, picture st : Frame
Duration : 6mn 45s
Bit rate mode : Variable
Bit rate : 9 139 Kbps
Maximum bit rate : 8 910 Kbps
Width : 720 pixels
Height : 576 pixels
Display aspect ratio : 4:3
Frame rate : 25.000 fps
Standard : PAL
Color space : YUV
Chroma subsampling : 4:2:0
Bit depth : 8 bits
Scan type : Interlaced
Scan order : Top Field First
Compression mode : Lossy
Bits/(Pixel*Frame) : 0.881
Time code of first frame : 01:02:00:01
Time code source : Group of pictures header
GOP, Open/Closed : Closed
Stream size : 442 MiB (94%)

Audio
ID : 189 (0xBD)-128 (0x80)
Format : AC-3
Format/Info : Audio Coding 3
Mode extension : CM (complete main)
Format settings, Endianness : Big
Muxing mode : DVD-Video
Duration : 6mn 45s
Bit rate mode : Constant
Bit rate : 384 Kbps
Channel(s) : 2 channels
Channel positions : Front: L R
Sampling rate : 48.0 KHz
Bit depth : 16 bits
Compression mode : Lossy
Delay relative to video : -148ms
Stream size : 18.6 MiB (4%)

Text
ID : 189 (0xBD)-32 (0x20)
Format : RLE
Format/Info : Run-length encoding
Muxing mode : DVD-Video
Duration : 6mn 45s

Menu

Format:
PAL

Set List/Chapters:


Checksums or Fingerprints:
# MD5 checksums generated by MD5summer (http://www.md5summer.org)
# Generated 13.10.2015 20:20:04

2c87f0100b28fe53a1fe70db474cf0e8 *VIDEO_TS.BUP
2c87f0100b28fe53a1fe70db474cf0e8 *VIDEO_TS.IFO
8eafefdbfbab27b3be941c5677ffa55a *VIDEO_TS.VOB
ced76ab81051483f766a8b452eaec7ea *VTS_01_0.BUP
ced76ab81051483f766a8b452eaec7ea *VTS_01_0.IFO
5679d572464ad063c693ada79419081c *VTS_01_1.VOB
918348eb90929e739373491ffe712e0d *VTS_01_2.VOB
9c7a011310a76b8675d9b6dd7b72095b *VTS_01_3.VOB
9eaee4dad7d1af3debff4a8a53070e92 *VTS_01_4.VOB
674fc12e6ecd6be6da1865d637d90aeb *VTS_01_5.VOB
be7d1e5561579c3d30c375ab68710e64 *VTS_01_6.VOB
4545000468e06ce3f6dfaccbdd29d52f *VTS_01_7.VOB
4a669ed1c0fdf251dea5bca3a986b221 *VTS_01_8.VOB
23d60d7b09d311a4b55dfd8a2a82beb8 *VTS_01_9.VOB

Attached Files
This post has an attachment which you could see if you were registered.

Last edited by Born Again; 10.13.15 at 09:52 AM.
  (#2) Old
Wrathchild Wrathchild is offline
Trader Supreme
 
Wrathchild's Avatar


Join Date: 03.18.08
User ID: 27544
Posts: 512

Trader Rating: 2

Rate This Trader!



UL: 2.86 TB
DL: 1.54 TB
Ratio: 1.85
Seed Points: 2,737.60

Sharing Ratio
Policy


Torrent Thank You's: 230
Thanked Posts: 310

10.13.15, 12:25 PM

Thanks for this


For All Your Iron Maiden lossless bootlegs join Powerslaved
http://www.powerslaved.com/index.php
  (#3) Old
benuto benuto is offline
Trader God


Join Date: 11.21.09
User ID: 41940
Posts: 886

Trader Rating: 0

Rate This Trader!



UL: 1.15 TB
DL: 1.44 TB
Ratio: 0.79
Seed Points: 604,919.40

Sharing Ratio
Policy


Torrent Thank You's: 195
Thanked Posts: 445

10.15.15, 12:00 PM

:d:d:d
  (#4) Old
thestreets thestreets is offline
Rookie


Join Date: 10.22.15
User ID: 71152
Posts: 8

Trader Rating: 0

Rate This Trader!



UL: 0.00 kB
DL: 12.49 GB
Ratio: 0.00
Seed Points: 0.80

Sharing Ratio
Policy


Torrent Thank You's: 0
Thanked Posts: 4

10.22.15, 09:06 AM

thanks
  (#5) Old
SerialSon SerialSon is offline
Trader God


Join Date: 02.10.09
User ID: 34779
Posts: 1,394

Trader Rating: 0

Rate This Trader!



UL: 6.12 TB
DL: 5.59 TB
Ratio: 1.09
Seed Points: 39,779.60

Sharing Ratio
Policy


Torrent Thank You's: 0
Thanked Posts: 1,296

11.07.15, 07:16 AM

Thank you!
Closed Thread

Tags
1991-1993, ball, headbangers, mtv, thrashandspeed-2

Thread Tools
Display Modes

Posting Rules
You may not post new threads
You may not post replies
You may not post attachments
You may not edit your posts

BB code is On
Smilies are On
[IMG] code is On
HTML code is Off

Forum Jump

Similar Threads
Thread Thread Starter Forum Replies Last Post
UK DVD trader abramlord Non-Bit Torrent Trading 5 05.22.13 12:51 AM
Only AOR & Hard Rock DVD Trade list kingofhearts Trade Lists 28 05.08.12 01:33 PM
HI there Always Looking to Trade diamondmedia1 Trade Lists 40 09.22.10 07:58 AM



4.jpg


Powered by vBulletin® Version 3.8.5
Copyright ©2000 - 2018, Jelsoft Enterprises Ltd.

WEB HOSTING: Hosting 4 Less

vB Forum Feeds by CinVin

Copyright © 2004-2017 JamToThis.com

vBulletin Skin developed by: vBStyles.com