JamToThis  
iTrader

Is your sharing ratio bad? Donate to our server costs and get upload credit!

Go Back   JamToThis > Bit Torrent Downloads > Video Bit Torrents

Reply
 
Thread Tools Display Modes
  (#1) Old
juzzi juzzi is offline
Trader Supreme


Join Date: 11.13.06
User ID: 14004
Posts: 593

Trader Rating: 28

Rate This Trader!



UL: 1.03 TB
DL: 1.19 TB
Ratio: 0.87
Seed Points: 5,527.20

Sharing Ratio
Policy


Torrent Thank You's: 4,212
Thanked Posts: 340

Video - Pro Shot Motorhead - live and tv-shows collection dvd - 01.17.18, 02:18 AM

Artist:
Motorhead

Show or Bootleg Title:
live and tv-shows collection dvd

Show Venue:


Source:
DVD - Pro Shot

Video Quality/Production Info:
quality good

Audio/Video Specs:
General
Complete name : C:\Users\Juzzi\Downloads\Motorhead - live and tv shows dvd\VIDEO_TS\VTS_05_1.VOB
Format : MPEG-PS
File size : 1 024 MiB
Duration : 29 min 25 s
Overall bit rate mode : Variable
Overall bit rate : 4 866 kb/s

Video
ID : 224 (0xE0)
Format : MPEG Video
Format version : Version 2
Format profile : Main@Main
Format settings, BVOP : Yes
Format settings, Matrix : Custom
Format settings, GOP : M=3, N=12
Format settings, picture struc : Frame
Duration : 29 min 25 s
Bit rate mode : Variable
Bit rate : 4 513 kb/s
Maximum bit rate : 9 260 kb/s
Width : 720 pixels
Height : 576 pixels
Display aspect ratio : 16:9
Frame rate : 25.000 FPS
Standard : PAL
Color space : YUV
Chroma subsampling : 4:2:0
Bit depth : 8 bits
Scan type : Interlaced
Scan order : Top Field First
Compression mode : Lossy
Bits/(Pixel*Frame) : 0.435
Time code of first frame : 00:00:00:00
Time code source : Group of pictures header
GOP, Open/Closed : Open
GOP, Open/Closed of first fram : Closed
Stream size : 950 MiB (93%)

Audio
ID : 189 (0xBD)-128 (0x80)
Format : AC-3
Format/Info : Audio Coding 3
Format settings, Endianness : Big
Muxing mode : DVD-Video
Duration : 29 min 24 s
Bit rate mode : Constant
Bit rate : 256 kb/s
Channel(s) : 2 channels
Channel positions : Front: L R
Sampling rate : 48.0 kHz
Frame rate : 31.250 FPS (1536 SPF)
Bit depth : 16 bits
Compression mode : Lossy
Delay relative to video : -16 ms
Stream size : 53.9 MiB (5%)
Service kind : Complete Main

Menu

Format:
PAL

Set List/Chapters:
Cool collection of motorhead live and tv shows dvd..
i hope you like it

Life is a bitch (tv-total 2004)
Shut your mouth (Harald Schimidt show 2002)
Brave new world (tv-total 2002)
+ Jack without cola interview (Lemmy)
God save the queen (Harald Schimidt show 2000)

Montreux,Jazz festival Switzerland 2007-07-07

Rosalee
Sacrifice
Cos`you got the power
Going to Brazil
Killed by death
Iron fist
Whore house blues
Ace of spades
Overkill

Checksums or Fingerprints:
# MD5 checksums generated by MD5summer (http://www.md5summer.org)
# Generated 17.1.2018 12:15:34

b49764d7a31a57b7f65b830a07d9fb77 *VIDEO_TS.BUP
b49764d7a31a57b7f65b830a07d9fb77 *VIDEO_TS.IFO
4d291b3a5d4d6690545e4bf8390d7c70 *VTS_01_0.BUP
4d291b3a5d4d6690545e4bf8390d7c70 *VTS_01_0.IFO
a86077809294133ab63fedb296fee3c0 *VTS_01_1.VOB
d9f77b333aef3b4bce59c57dba875ce2 *VTS_02_0.BUP
d9f77b333aef3b4bce59c57dba875ce2 *VTS_02_0.IFO
f18f7e6332376c54f1cb4deb044bb0d9 *VTS_02_1.VOB
1e7b175c9bbf6c30a9a505abd9303635 *VTS_03_0.BUP
1e7b175c9bbf6c30a9a505abd9303635 *VTS_03_0.IFO
657cf6ce973ef7abce7069c3da5b5941 *VTS_03_1.VOB
763eb12248af52bc4aa774e95d1b7f6b *VTS_04_0.BUP
763eb12248af52bc4aa774e95d1b7f6b *VTS_04_0.IFO
8af94d971b35a4f9ce430e976d7399f2 *VTS_04_1.VOB
fd76292ea20cdbadc2b3aca4ebb75cd3 *VTS_05_0.BUP
fd76292ea20cdbadc2b3aca4ebb75cd3 *VTS_05_0.IFO
9f9e4462e668d1ebb45802c8f0391d55 *VTS_05_1.VOB
aceb22c99b85f2f478ee2c3ff46959f6 *VTS_05_2.VOB
Attached Images
This post has an attachment which you could see if you were registered.
This post has an attachment which you could see if you were registered.
This post has an attachment which you could see if you were registered.
This post has an attachment which you could see if you were registered.
This post has an attachment which you could see if you were registered.
Attached Files
This post has an attachment which you could see if you were registered.
Reply With Quote
  (#2) Old
eduardosfontes eduardosfontes is offline
Rookie


Join Date: 12.28.12
User ID: 63687
Posts: 26

Trader Rating: 0

Rate This Trader!



UL: 664.11 MB
DL: 17.29 GB
Ratio: 0.04
Seed Points: 0.00

Sharing Ratio
Policy


Torrent Thank You's: 0
Thanked Posts: 21

05.29.18, 11:17 AM

Thanks.
Reply With Quote
  (#3) Old
eduardosfontes eduardosfontes is offline
Rookie


Join Date: 12.28.12
User ID: 63687
Posts: 26

Trader Rating: 0

Rate This Trader!



UL: 664.11 MB
DL: 17.29 GB
Ratio: 0.04
Seed Points: 0.00

Sharing Ratio
Policy


Torrent Thank You's: 0
Thanked Posts: 21

05.29.18, 11:18 AM

Great show.
Reply With Quote
  (#4) Old
franzmontalvo franzmontalvo is offline
Rookie


Join Date: 09.05.18
User ID: 76556
Posts: 6

Trader Rating: 0

Rate This Trader!



Sharing Ratio
Policy


Torrent Thank You's: 0
Thanked Posts: 4

09.05.18, 12:30 PM

Tanks
Reply With Quote
  (#5) Old
sensi_wasp sensi_wasp is offline
Trader


Join Date: 09.06.13
User ID: 66421
Posts: 183

Trader Rating: 0

Rate This Trader!



UL: 110.24 GB
DL: 139.00 GB
Ratio: 0.79
Seed Points: 6,257.20

Sharing Ratio
Policy


Torrent Thank You's: 0
Thanked Posts: 97

09.06.18, 12:10 PM

Thanks.
Reply With Quote
Reply

Tags
collection, dvd, live, motorhead, tv-shows

Thread Tools
Display Modes

Posting Rules
You may not post new threads
You may not post replies
You may not post attachments
You may not edit your posts

BB code is On
Smilies are On
[IMG] code is On
HTML code is Off

Forum Jump



6.jpg


Powered by vBulletin® Version 3.8.5
Copyright ©2000 - 2018, Jelsoft Enterprises Ltd.

WEB HOSTING: Hosting 4 Less

vB Forum Feeds by CinVin

Copyright © 2004-2018 JamToThis.com

vBulletin Skin developed by: vBStyles.com