JamToThis  
iTrader

Is your sharing ratio bad? Donate to our server costs and get upload credit!

Go Back   JamToThis > Bit Torrent Downloads > Video Bit Torrents

Reply
 
Thread Tools Display Modes
  (#1) Old
maidencollector maidencollector is offline
Trader


Join Date: 11.13.15
User ID: 71286
Posts: 175

Trader Rating: 2

Rate This Trader!



UL: 867.19 GB
DL: 162.25 GB
Ratio: 5.34
Seed Points: 9,340.00

Sharing Ratio
Policy


Torrent Thank You's: 1,498
Thanked Posts: 33

Video - Audience Kiss - 2000-04-21 Greenville, SC, USA - 11.07.18, 08:32 PM

Artist:
Kiss

Show or Bootleg Title:
2000-04-21 Greenville, SC, USA

Show Venue:
Bi-Lo Center

Source:
DVD - Audience

Video Quality/Production Info:


Audio/Video Specs:
General
Format : MPEG-PS
File size : 1 024 MiB
Duration : 17 s 17 ms
Overall bit rate mode : Variable
Overall bit rate : 505 Mb/s

Video
ID : 224 (0xE0)
Format : MPEG Video
Format version : Version 2
Format profile : Main@Main
Format settings, BVOP : Yes
Format settings, Matrix : Default
Format settings, GOP : M=3, N=15
Format settings, picture struc : Frame
Duration : 17 s 17 ms
Bit rate mode : Variable
Bit rate : 494 Mb/s
Maximum bit rate : 9 555 kb/s
Width : 704 pixels
Height : 480 pixels
Display aspect ratio : 4:3
Frame rate : 29.970 (30000/1001) FPS
Standard : NTSC
Color space : YUV
Chroma subsampling : 4:2:0
Bit depth : 8 bits
Scan type : Interlaced
Scan order : Top Field First
Compression mode : Lossy
Bits/(Pixel*Frame) : 48.826
Time code of first frame : 00:00:00:00
Time code source : Group of pictures header
Stream size : 1 003 MiB (98%)
Color primaries : BT.601 NTSC
Transfer characteristics : BT.601
Matrix coefficients : BT.601

Audio
ID : 189 (0xBD)-128 (0x80)
Format : AC-3
Format/Info : Audio Coding 3
Format settings, Endianness : Big
Muxing mode : DVD-Video
Duration : 16 s 530 ms
Bit rate mode : Constant
Bit rate : 256 kb/s
Channel(s) : 2 channels
Channel positions : Front: L R
Sampling rate : 48.0 kHz
Frame rate : 31.250 FPS (1536 SPF)
Bit depth : 16 bits
Compression mode : Lossy
Stream size : 517 KiB (0%)
Service kind : Complete Main

Text
ID : 224 (0xE0)-CC3
Format : EIA-608
Muxing mode, more info : Muxed in Video #1
Duration : 17 s 17 ms
Bit rate mode : Constant
Stream size : 0.00 Byte (0%)
CaptionServiceName : CC3

Format:
NTSC

Set List/Chapters:
Deuce
Shout It Out Loud
I Love It Loud
Shock Me
Firehouse
Do You Love Me
Calling Dr. Love
Psycho Circus
Heaven's on Fire
Let Me Go, Rock 'N' Roll
2000 Man
Guitar Solo
Lick It Up
Bass Solo
God of Thunder
Cold Gin
100,000 Years
Drum Solo
Love Gun
Black Diamond

Encore:
Beth
Rock and Roll All Nite

Checksums or Fingerprints:
# MD5 checksums generated by MD5summer (http://www.md5summer.org)
# Generated 8/11/2018 3:26:31 PM

0496bf499beb4a3bb6dbcf0e579a7576 *VIDEO_TS.BUP
0496bf499beb4a3bb6dbcf0e579a7576 *VIDEO_TS.IFO
2a0580a3688657015a5c858e4ed801ce *VIDEO_TS.VOB
e091a0d679edf17eae72895d1f9343df *VTS_01_0.BUP
e091a0d679edf17eae72895d1f9343df *VTS_01_0.IFO
02641fc465b8e153bb0516c87c8ac91c *VTS_01_1.VOB
4dde0cc47303403b4695c13991579680 *VTS_01_2.VOB
7adff25a5f38717dd45bbe343d11aed1 *VTS_01_3.VOB
3a5fd3c9ac39a5a355636cf17c7d2c5c *VTS_01_4.VOB
Attached Files
This post has an attachment which you could see if you were registered.


I can not seed 24/7 so please be patient. Thank you.
Reply With Quote
The Following 7 Members Thank maidencollector For This Torrent
Reply

Tags
2000-04-21, greenville, kiss, sc, usa

Thread Tools
Display Modes

Posting Rules
You may not post new threads
You may not post replies
You may not post attachments
You may not edit your posts

BB code is On
Smilies are On
[IMG] code is On
HTML code is Off

Forum Jump

Similar Threads
Thread Thread Starter Forum Replies Last Post
Www.livedvdarchive.com Suff22886 Trade Lists 3 08.22.15 01:39 PM
UK DVD trader abramlord Non-Bit Torrent Trading 5 05.22.13 01:51 AM
My Metallica DVD List.....looking for traders..!! unforgiven Trade Lists 0 04.14.09 05:37 AM
DVD Trading Site Suff22886 Trade Lists 4 03.15.09 03:59 AM



6.jpg


Powered by vBulletin® Version 3.8.5
Copyright ©2000 - 2018, Jelsoft Enterprises Ltd.

WEB HOSTING: Hosting 4 Less

vB Forum Feeds by CinVin

Copyright © 2004-2018 JamToThis.com

vBulletin Skin developed by: vBStyles.com