JamToThis  
iTrader

Is your sharing ratio bad? Donate to our server costs and get upload credit!

Go Back   JamToThis > Bit Torrent Downloads > Video Bit Torrents

Reply
 
Thread Tools Display Modes
  (#1) Old
TheDoorsLegend TheDoorsLegend is offline
Trader Supreme
 
TheDoorsLegend's Avatar


Join Date: 11.17.12
User ID: 63129
Posts: 585
Location: Mexico

Trader Rating: 12

Rate This Trader!



UL: 328.94 GB
DL: 231.40 GB
Ratio: 1.42
Seed Points: 3,238.40

Sharing Ratio
Policy


Torrent Thank You's: 2,141
Thanked Posts: 382

Video - Audience KISS - Wantagh, New York - 2014-08-06 (JeanCoverDesign) - 07.27.18, 09:04 PM

Artist:
KISS

Show or Bootleg Title:
Wantagh, New York - 2014-08-06 (JeanCoverDesign)

Show Venue:
Jones Beach Theater

Source:


Video Quality/Production Info:
Video: B, Audio: B

Audio/Video Specs:
Video
ID : 224 (0xE0)
Format : MPEG Video
Format version : Version 2
Format profile : Main@Main
Format settings, BVOP : Yes
Format settings, Matrix : Custom
Format settings, GOP : M=3, N=18
Format settings, picture st : Frame
Bit rate mode : Variable
Bit rate : 6 739 kb/s
Maximum bit rate : 7 000 kb/s
Width : 720 pixels
Height : 480 pixels
Display aspect ratio : 16:9
Frame rate : 29.970 (30000/1001) FPS
Standard : NTSC
Color space : YUV
Chroma subsampling : 4:2:0
Bit depth : 8 bits
Scan type : Interlaced
Scan order : Top Field First
Compression mode : Lossy
Bits/(Pixel*Frame) : 0.651
Time code of first frame : 00:00:00:00
Time code source : Group of pictures header
GOP, Open/Closed : Open
GOP, Open/Closed of first f : Closed
Stream size : 781 MiB (76%)
Writing library : TMPGEnc Authoring Works 4 Version. 4.0.12.42
Color primaries : BT.601 NTSC
Transfer characteristics : BT.601
Matrix coefficients : BT.601

Audio #1
ID : 189 (0xBD)-129 (0x81)
Format : AC-3
Format/Info : Audio Coding 3
Format settings, Endianness : Big
Muxing mode : DVD-Video
Bit rate mode : Constant
Bit rate : 384 kb/s
Channel(s) : 6 channels
Channel positions : Front: L C R, Side: L R, LFE
Sampling rate : 48.0 kHz
Frame rate : 31.250 FPS (1536 spf)
Bit depth : 16 bits
Compression mode : Lossy
Stream size : 44.5 MiB (4%)
Service kind : Complete Main

Audio #2
ID : 189 (0xBD)-160 (0xA0)
Format : PCM
Format settings, Endianness : Big
Format settings, Sign : Signed
Muxing mode : DVD-Video
Bit rate mode : Constant
Bit rate : 1 536 kb/s
Channel(s) : 2 channels
Sampling rate : 48.0 kHz
Bit depth : 16 bits
Stream size : 178 MiB (17%)

Format:


Set List/Chapters:
Intro
Psycho Circus
Deuce
Shout It Out Loud
War Machine
Hotter Than Hell
I Love It Loud
Lick It Up
God of Thunder
Hide Your Heart
Calling Dr. Love
Love Gun
Black Diamond
Detroit Rock City
Rock And Roll

BONUS:
American Idol - May 21, 2014
Fashion Rock - Sept 9, 2014

Checksums or Fingerprints:
# MD5 checksums generated by MD5summer (http://www.md5summer.org)
# Generated 27/07/2018 02:06:34 p.m.

9e3d01b317d01d81c44e0b9ac70113d2 *VIDEO_TS/VIDEO_TS.BUP
9e3d01b317d01d81c44e0b9ac70113d2 *VIDEO_TS/VIDEO_TS.IFO
d706f49fde228ce648082c9d7a9e09fa *VIDEO_TS/VIDEO_TS.VOB
be9d006a5e4850584a524cd3e98abaf4 *VIDEO_TS/VTS_01_0.BUP
be9d006a5e4850584a524cd3e98abaf4 *VIDEO_TS/VTS_01_0.IFO
6e1223571fcfdda87f462c4000bd06ff *VIDEO_TS/VTS_01_0.VOB
3f9d63ddbd9e28cdc27555c327d81835 *VIDEO_TS/VTS_01_1.VOB
e4bb40480ba96c1c9979dca6560f7724 *VIDEO_TS/VTS_01_2.VOB
72ce01d4ef1f24fe5a7390d5b737466d *VIDEO_TS/VTS_01_3.VOB
67f01281d0993ea95ba7015d80e28ecf *VIDEO_TS/VTS_01_4.VOB
25d1860147254d5ac631caa16e9bfa54 *VIDEO_TS/VTS_01_5.VOB
410a9f707188c1e9a0f445401cd1b76d *VIDEO_TS/VTS_01_6.VOB
Attached Images
This post has an attachment which you could see if you were registered.
This post has an attachment which you could see if you were registered.
This post has an attachment which you could see if you were registered.
This post has an attachment which you could see if you were registered.
This post has an attachment which you could see if you were registered.
Attached Files
This post has an attachment which you could see if you were registered.
Reply With Quote
  (#2) Old
rockandrollover rockandrollover is offline
Trader Supreme
 
rockandrollover's Avatar


Join Date: 04.07.06
User ID: 9628
Posts: 563

Trader Rating: 1

Rate This Trader!



UL: 832.22 GB
DL: 959.31 GB
Ratio: 0.87
Seed Points: 10,500.00

Sharing Ratio
Policy


Torrent Thank You's: 0
Thanked Posts: 324

07.28.18, 02:56 AM

Thanks
Reply With Quote
  (#3) Old
urfold urfold is offline
We Came To Rock
 
urfold's Avatar


Join Date: 09.03.09
User ID: 40325
Posts: 4,427
Location: Pandemonium

Trader Rating: 278

Rate This Trader!



UL: 12.64 TB
DL: 7.84 TB
Ratio: 1.61
Seed Points: 817,297.00

Sharing Ratio
Policy


Torrent Thank You's: 14,316
Thanked Posts: 2,177

07.30.18, 04:44 AM

Thanks very much for this JCD version




************************

Great New Lossless Torrent Bootleg Site
http://liveshownation.com/index.php
Reply With Quote
  (#4) Old
gorgoroth666 gorgoroth666 is offline
Trader


Join Date: 11.24.12
User ID: 63228
Posts: 100

Trader Rating: 0

Rate This Trader!



UL: 0.00 kB
DL: 82.36 GB
Ratio: 0.00
Seed Points: 6.20

Sharing Ratio
Policy


Torrent Thank You's: 0
Thanked Posts: 81

08.22.18, 12:29 PM

thank yo so much
Reply With Quote
Reply

Tags
2014-08-06, jeancoverdesign, kiss, wantagh, york

Thread Tools
Display Modes

Posting Rules
You may not post new threads
You may not post replies
You may not post attachments
You may not edit your posts

BB code is On
Smilies are On
[IMG] code is On
HTML code is Off

Forum Jump

Similar Threads
Thread Thread Starter Forum Replies Last Post
UK DVD trader abramlord Non-Bit Torrent Trading 5 05.22.13 01:51 AM



1.jpg


Powered by vBulletin® Version 3.8.5
Copyright ©2000 - 2018, Jelsoft Enterprises Ltd.

WEB HOSTING: Hosting 4 Less

vB Forum Feeds by CinVin

Copyright © 2004-2018 JamToThis.com

vBulletin Skin developed by: vBStyles.com