JamToThis  
iTrader

Is your sharing ratio bad? Donate to our server costs and get upload credit!

Go Back   JamToThis > Bit Torrent Downloads > Video Bit Torrents

Reply
 
Thread Tools Display Modes
  (#1) Old
TheDoorsLegend TheDoorsLegend is offline
Trader Supreme
 
TheDoorsLegend's Avatar


Join Date: 11.17.12
User ID: 63129
Posts: 585
Location: Mexico

Trader Rating: 12

Rate This Trader!



UL: 328.94 GB
DL: 231.40 GB
Ratio: 1.42
Seed Points: 3,238.40

Sharing Ratio
Policy


Torrent Thank You's: 2,143
Thanked Posts: 382

Video - Audience KISS - Sydney, Australia 2013-03-09 (Navigator Version) - 07.26.18, 09:02 PM

Artist:
KISS

Show or Bootleg Title:
Sydney, Australia

Show Venue:
Allphones Arena

Source:
DVD - Audience

Video Quality/Production Info:
Video: B, Audio: B

Audio/Video Specs:
Video
ID : 224 (0xE0)
Format : MPEG Video
Format version : Version 2
Format profile : Main@Main
Format settings, BVOP : Yes
Format settings, Matrix : Custom
Format settings, GOP : M=3, N=13
Format settings, picture st : Frame
Bit rate mode : Variable
Bit rate : 7 382 kb/s
Maximum bit rate : 8 000 kb/s
Width : 720 pixels
Height : 576 pixels
Display aspect ratio : 16:9
Frame rate : 25.000 FPS
Standard : PAL
Color space : YUV
Chroma subsampling : 4:2:0
Bit depth : 8 bits
Scan type : Interlaced
Scan order : Top Field First
Compression mode : Lossy
Bits/(Pixel*Frame) : 0.712
Time code of first frame : 00:00:00:00
Time code source : Group of pictures header
GOP, Open/Closed : Closed
Stream size : 946 MiB (92%)
Writing library : TMPGEnc Authoring Works 4 Version. 4.0.12.42
Color primaries : BT.601 PAL
Transfer characteristics : BT.470 System B, BT.470 System G
Matrix coefficients : BT.601

Audio
ID : 189 (0xBD)-128 (0x80)
Format : AC-3
Format/Info : Audio Coding 3
Format settings, Endianness : Big
Muxing mode : DVD-Video
Bit rate mode : Constant
Bit rate : 448 kb/s
Channel(s) : 6 channels
Channel positions : Front: L C R, Side: L R, LFE
Sampling rate : 48.0 kHz
Frame rate : 31.250 FPS (1536 spf)
Bit depth : 16 bits
Compression mode : Lossy
Stream size : 57.4 MiB (6%)
Service kind : Complete Main

Format:
PAL

Set List/Chapters:
Detroit Rock City
Shout It Out Loud
Deuce
Firehouse
Hell O Hallelujah
Calling Dr. Love
Outta This World
Psycho Circus
Bass Solo
I Love It Loud
Crazy, Crazy Nights
War Machine
Love Gun
Rock And Roll All Nite

Encore:
Lick It Up
Black Diamond

Checksums or Fingerprints:
# MD5 checksums generated by MD5summer (http://www.md5summer.org)
# Generated 19/07/2018 03:56:48 p.m.

1e9d9ce9b3102f22dae7e4e84613cd47 *VIDEO_TS/VIDEO_TS.BUP
1e9d9ce9b3102f22dae7e4e84613cd47 *VIDEO_TS/VIDEO_TS.IFO
70e852b72e7f48878ac7a3d838a2de4b *VIDEO_TS/VIDEO_TS.VOB
bd8cf2aa6d2d00c81edc7b59423058e9 *VIDEO_TS/VTS_01_0.BUP
bd8cf2aa6d2d00c81edc7b59423058e9 *VIDEO_TS/VTS_01_0.IFO
f2a3e03b5befb5d7ac000530c8576b2d *VIDEO_TS/VTS_01_1.VOB
14bccb6912d0ca95e2b9c2a156691f30 *VIDEO_TS/VTS_01_2.VOB
d566e309c35f1e59614c12925d7fab3f *VIDEO_TS/VTS_01_3.VOB
b2e983c015e06872b09b0451164dd1a6 *VIDEO_TS/VTS_01_4.VOB
ea08f1b02248fe22444bed5956e142d0 *VIDEO_TS/VTS_01_5.VOB
85174eb0cf362097b24d9bcc22dd5a9b *VIDEO_TS/VTS_01_6.VOB
Attached Images
This post has an attachment which you could see if you were registered.
This post has an attachment which you could see if you were registered.
This post has an attachment which you could see if you were registered.
This post has an attachment which you could see if you were registered.
This post has an attachment which you could see if you were registered.
Attached Files
This post has an attachment which you could see if you were registered.

Last edited by TheDoorsLegend; 07.26.18 at 09:03 PM. Reason: date added
Reply With Quote
  (#2) Old
Lizzy7141990 Lizzy7141990 is offline
Trader Supreme


Join Date: 03.20.11
User ID: 52487
Posts: 371

Trader Rating: 0

Rate This Trader!



UL: 1.08 TB
DL: 809.08 GB
Ratio: 1.36
Seed Points: 16,160.60

Sharing Ratio
Policy


Torrent Thank You's: 0
Thanked Posts: 250

07.26.18, 10:28 PM

Thank You
Reply With Quote
  (#3) Old
rockandrollover rockandrollover is offline
Trader Supreme
 
rockandrollover's Avatar


Join Date: 04.07.06
User ID: 9628
Posts: 563

Trader Rating: 1

Rate This Trader!



UL: 832.22 GB
DL: 959.31 GB
Ratio: 0.87
Seed Points: 10,500.00

Sharing Ratio
Policy


Torrent Thank You's: 0
Thanked Posts: 324

07.27.18, 06:05 PM

Thanks!
Reply With Quote
Reply

Tags
2013-03-09, australia, kiss, navigator, sydney, version

Thread Tools
Display Modes

Posting Rules
You may not post new threads
You may not post replies
You may not post attachments
You may not edit your posts

BB code is On
Smilies are On
[IMG] code is On
HTML code is Off

Forum Jump

Similar Threads
Thread Thread Starter Forum Replies Last Post
Trade!!!! Muttlange Non-Bit Torrent Trading 3 08.22.13 05:58 AM
UK DVD trader abramlord Non-Bit Torrent Trading 5 05.22.13 01:51 AM
My bootleg list (asian bands a priority, but I like ALMOST everything) StarslayerJo Trade Lists 1 10.19.12 11:35 PM
Here Is Part 2 Of My List All KISS waynesdvds Trade Lists 1 03.27.09 02:35 PM



1.jpg


Powered by vBulletin® Version 3.8.5
Copyright ©2000 - 2018, Jelsoft Enterprises Ltd.

WEB HOSTING: Hosting 4 Less

vB Forum Feeds by CinVin

Copyright © 2004-2018 JamToThis.com

vBulletin Skin developed by: vBStyles.com