JamToThis  
iTrader

Is your sharing ratio bad? Donate to our server costs and get upload credit!

Go Back   JamToThis > Bit Torrent Downloads > Video Bit Torrents

Reply
 
Thread Tools Display Modes
  (#1) Old
joh joh is offline
Rookie


Join Date: 02.04.18
User ID: 75800
Posts: 29

Trader Rating: 0

Rate This Trader!



UL: 48.67 GB
DL: 52.66 GB
Ratio: 0.92
Seed Points: 124.80

Sharing Ratio
Policy


Torrent Thank You's: 46
Thanked Posts: 20

HD - Pro Shot Status.Quo - Live.At.Montreux.2009.DTS.720p.BluRay.x264 - 02.11.18, 08:13 AM

Artist:
Status.Quo

Show or Bootleg Title:
Live.At.Montreux.2009.DTS.720p.BluRay.x264

Show Venue:
Live.At.Montreux.2009.DTS.720p.BluRay.x264

Source:
HD - Pro Shot

Video Quality/Production Info:
Video: A, Audio: A

Audio/Video Specs:
Video: MPEG4 Video (H264) 1280x720 29.97fps [V: English [eng] (h264 high L4.1, yuv420p, 1280x720)]
Audio: DTS 48000Hz 6ch 1536kbps [A: DTS 5.1 @ 1536kbs [eng] (dts, 48000 Hz, 5.1, 1536 kb/s)

Format:
HD

Set List/Chapters:
Tracklisting:

1) Caroline
2) The Wanderer
3) Rain
4) Don't Drive My Car
5) Mean Girl / Softer Ride
6) Beginning Of The End
7) Is There A Better Way
8) Proposing Medley: What You're Proposing / Down The Dustpipe /
Little Lady / Red Sky / Dear John / Big Fat Mama
9) Pictures Of Matchstick Men / Ice In The Sun
10) The Oriental
11) Creepin' Up
12) In My Chair
13) Living On An Island
14) In The Army Now
15) The Killer
16) Roll Over Lay Down
17) Down Down
18) Whatever You Want
19) Rockin' All Over The World
20) Junior's Wailing
21) Rock 'n' Roll Music / Bye Bye Johnny


ad\Status.Quo.Pictures.Live.At.Montreux.2009.DTS.7 20p.BluRay.x264.mkv
Format : Matroska
Format version : Version 2
File size : 5.34 GiB
Duration : 1 h 40 min
Overall bit rate : 7 612 kb/s
Encoded date : UTC 2011-03-18 10:00:27
Writing application : mkvmerge v4.0.0 ('The Stars were mine') gebaut am Jun 6 2010 16:18:42
Writing library : libebml v1.0.0 + libmatroska v1.0.0

Video
ID : 1
Format : AVC
Format/Info : Advanced Video Codec
Format profile : High@L4.1
Format settings, CABAC : Yes
Format settings, ReFrames : 9 frames
Codec ID : V_MPEG4/ISO/AVC
Duration : 1 h 40 min
Bit rate : 6 100 kb/s
Width : 1 280 pixels
Height : 720 pixels
Display aspect ratio : 16:9
Frame rate mode : Constant
Frame rate : 29.970 (29970/1000) FPS
Color space : YUV
Chroma subsampling : 4:2:0
Bit depth : 8 bits
Scan type : Progressive
Bits/(Pixel*Frame) : 0.221
Stream size : 4.18 GiB (78%)
Writing library : x264 core 80 r1373M 4322f63
Encoding settings : cabac=1 / ref=9 / deblock=1:-2:-2 / analyse=0x3:0x113 / me=umh / subme=9 / psy=1 / psy_rd=1.0:0.0 / mixed_ref=1 / me_range=24 / chroma_me=1 / trellis=2 / 8x8dct=1 / cqm=0 / deadzone=21,11 / fast_pskip=0 / chroma_qp_offset=-2 / threads=6 / sliced_threads=0 / nr=0 / decimate=0 / mbaff=0 / constrained_intra=0 / bframes=4 / b_pyramid=0 / b_adapt=2 / b_bias=0 / direct=3 / wpredb=1 / wpredp=2 / keyint=250 / keyint_min=25 / scenecut=40 / rc_lookahead=0 / rc=2pass / mbtree=0 / bitrate=6100 / ratetol=1.0 / qcomp=0.60 / qpmin=10 / qpmax=51 / qpstep=4 / cplxblur=20.0 / qblur=0.5 / vbv_maxrate=50000 / vbv_bufsize=50000 / ip_ratio=1.40 / pb_ratio=1.30 / aq=1:1.00
Language : English
Default : No
Forced : No

Audio
ID : 2
Format : DTS
Format/Info : Digital Theater Systems
Mode : 16
Format settings, Endianness : Big
Codec ID : A_DTS
Duration : 1 h 40 min
Bit rate mode : Constant
Bit rate : 1 509 kb/s
Channel(s) : 6 channels
Channel positions : Front: L C R, Side: L R, LFE
Sampling rate : 48.0 kHz
Frame rate : 93.750 FPS (512 spf)
Bit depth : 24 bits
Compression mode : Lossy
Stream size : 1.06 GiB (20%)
Title : DTS 5.1 @ 1536kbs
Language : English
Default : Yes
Forced : No

Checksums or Fingerprints:
# MD5 checksums generated by MD5summer (http://www.md5summer.org)
# Generated 11/02/2018 18:09:54

31040ed9324a4046fc89afe184f58b4a *info.txt
c89ebe2e0a31a7479cdf1ce6eaa5fb79 *Status.Quo.Pictures.Live.At.Montreux.2009.DTS.720 p.BluRay.x264.mkv
7a5770a5a552ffe79e3cf271d253e0cd *Status.Quo.Pictures.Live.At.Montreux.2009.DTS.720 p.BluRay.x264.mkv_thumbs.jpg
f681597a32f1e507c791cdc00cdff87e *trade list joh.txt
Attached Images
This post has an attachment which you could see if you were registered.
Attached Files
This post has an attachment which you could see if you were registered.
Reply With Quote
The Following 12 Members Thank joh For This Torrent
  (#2) Old
RoryGallagher RoryGallagher is offline
driftwood on a windy bay
 
RoryGallagher's Avatar


Join Date: 07.13.08
User ID: 30032
Posts: 59
Location: Friesland, Europe, Earth

Trader Rating: 7

Rate This Trader!



UL: 117.72 GB
DL: 42.91 GB
Ratio: 2.74
Seed Points: 10,690.80

Sharing Ratio
Policy


Torrent Thank You's: 242
Thanked Posts: 22

02.11.18, 08:54 AM

Thanks very very much
It is very hard to get some Quo to my opinion/experiences.

I have small 34.5GB┤s of Quo in my collection and would share by interest and by my time
Reply With Quote
  (#3) Old
joh joh is offline
Rookie


Join Date: 02.04.18
User ID: 75800
Posts: 29

Trader Rating: 0

Rate This Trader!



UL: 48.67 GB
DL: 52.66 GB
Ratio: 0.92
Seed Points: 124.80

Sharing Ratio
Policy


Torrent Thank You's: 46
Thanked Posts: 20

Smile 02.11.18, 09:16 AM

Quote:
Originally Posted by RoryGallagher View Post
Thanks very very much
It is very hard to get some Quo to my opinion/experiences.

I have small 34.5GB┤s of Quo in my collection and would share by interest and by my time
sure would love that
Reply With Quote
  (#4) Old
sweetmaniac sweetmaniac is offline
Trader Supreme
 
sweetmaniac's Avatar


Join Date: 10.19.07
User ID: 22565
Posts: 420

Trader Rating: 0

Rate This Trader!



UL: 2.16 TB
DL: 1.21 TB
Ratio: 1.79
Seed Points: 94,834.20

Sharing Ratio
Policy


Torrent Thank You's: 0
Thanked Posts: 317

02.11.18, 11:38 AM

Thanks a lot
Reply With Quote
  (#5) Old
rajerry rajerry is offline
Trader God


Join Date: 10.14.07
User ID: 22351
Posts: 755

Trader Rating: 0

Rate This Trader!



UL: 2.72 TB
DL: 1.73 TB
Ratio: 1.57
Seed Points: 21,983.40

Sharing Ratio
Policy


Torrent Thank You's: 0
Thanked Posts: 753

Official release! - 02.11.18, 10:56 PM

Hmm, is this not the official release?

https://www.amazon.com/Status-Quo-Pi.../dp/B002ZG4Q52
Reply With Quote
  (#6) Old
purplevienna purplevienna is offline
Trader


Join Date: 01.29.07
User ID: 15446
Posts: 205

Trader Rating: 11

Rate This Trader!



UL: 852.42 GB
DL: 826.92 GB
Ratio: 1.03
Seed Points: 5,666.40

Sharing Ratio
Policy


Torrent Thank You's: 0
Thanked Posts: 159

Exclamation Officialy released - 02.12.18, 03:53 AM

Quote:
Originally Posted by rajerry View Post
Hmm, is this not the official release?

https://www.amazon.com/Status-Quo-Pi.../dp/B002ZG4Q52
Yes, this one was officially released in various packages .......
Reply With Quote
  (#7) Old
urfold urfold is offline
We Came To Rock
 
urfold's Avatar


Join Date: 09.03.09
User ID: 40325
Posts: 4,419
Location: Pandemonium

Trader Rating: 278

Rate This Trader!



UL: 12.61 TB
DL: 7.83 TB
Ratio: 1.61
Seed Points: 815,264.20

Sharing Ratio
Policy


Torrent Thank You's: 14,306
Thanked Posts: 2,174

02.14.18, 11:34 AM

Quote:
Originally Posted by purplevienna View Post


Yes, this one was officially released in various packages .......
Therefore, it shouldn't be uploaded here ...




************************

Great New Lossless Torrent Bootleg Site
http://liveshownation.com/index.php

Last edited by urfold; 02.14.18 at 11:34 AM.
Reply With Quote
  (#8) Old
motorhead301 motorhead301 is offline
Trader


Join Date: 02.26.05
User ID: 2157
Posts: 42

Trader Rating: 0

Rate This Trader!



UL: 30.86 GB
DL: 44.33 GB
Ratio: 0.70
Seed Points: 590.60

Sharing Ratio
Policy


Torrent Thank You's: 0
Thanked Posts: 33

02.20.18, 03:10 PM

No this is a legitimate release and has no business being uploaded to any torrent site!
Reply With Quote
Reply

Tags
status.quo

Thread Tools
Display Modes

Posting Rules
You may not post new threads
You may not post replies
You may not post attachments
You may not edit your posts

BB code is On
Smilies are On
[IMG] code is On
HTML code is Off

Forum Jump



5.jpg


Powered by vBulletin® Version 3.8.5
Copyright ©2000 - 2018, Jelsoft Enterprises Ltd.

WEB HOSTING: Hosting 4 Less

vB Forum Feeds by CinVin

Copyright © 2004-2017 JamToThis.com

vBulletin Skin developed by: vBStyles.com