JamToThis  
iTrader

Is your sharing ratio bad? Donate to our server costs and get upload credit!

Go Back   JamToThis > Bit Torrent Downloads > Video Bit Torrents

Reply
 
Thread Tools Display Modes
  (#1) Old
akon111 akon111 is offline
Trader


Join Date: 11.19.17
User ID: 75546
Posts: 68
Location: Ukraine

Trader Rating: 0

Rate This Trader!



UL: 161.62 GB
DL: 161.18 GB
Ratio: 1.00
Seed Points: 302.20

Sharing Ratio
Policy


Torrent Thank You's: 506
Thanked Posts: 47

Video - Pro Shot V.A. - Headbanger's Ball (April 25, 1987) - 12.02.17, 08:04 AM

Artist:
V.A.

Show or Bootleg Title:
Headbanger's Ball (April 25, 1987)

Show Venue:
MTV

Source:
DVD - Pro Shot

Video Quality/Production Info:
A

Audio/Video Specs:
General
Complete name : F:\Headbanger's Ball\Headbanger's Ball (April 25, 1987)\VTS_01_1.VOB
Format : MPEG-PS
File size : 1 024 MiB
Duration : 30 min 3 s
Overall bit rate mode : Variable
Overall bit rate : 4 760 kb/s

Video
ID : 224 (0xE0)
Format : MPEG Video
Format version : Version 2
Format profile : Main@Main
Format settings : BVOP
Format settings, BVOP : Yes
Format settings, Matrix : Default
Format settings, GOP : M=3, N=15
Format settings, picture st : Frame
Duration : 30 min 3 s
Bit rate mode : Variable
Bit rate : 4 409 kb/s
Maximum bit rate : 6 125 kb/s
Width : 720 pixels
Height : 480 pixels
Display aspect ratio : 4:3
Frame rate : 29.970 (30000/1001) FPS
Standard : NTSC
Color space : YUV
Chroma subsampling : 4:2:0
Bit depth : 8 bits
Scan type : Interlaced
Scan order : Top Field First
Compression mode : Lossy
Bits/(Pixel*Frame) : 0.426
Time code of first frame : 00:00:00:00
Time code source : Group of pictures header
GOP, Open/Closed : Open
GOP, Open/Closed of first f : Closed
Stream size : 948 MiB (93%)
Color primaries : BT.601 NTSC
Transfer characteristics : BT.601
Matrix coefficients : BT.601

Audio
ID : 189 (0xBD)-128 (0x80)
Format : AC-3
Format/Info : Audio Coding 3
Muxing mode : DVD-Video
Duration : 30 min 3 s
Bit rate mode : Constant
Bit rate : 256 kb/s
Channel(s) : 2 channels
Channel positions : Front: L R
Sampling rate : 48.0 kHz
Frame rate : 31.250 FPS (1536 SPF)
Bit depth : 16 bits
Compression mode : Lossy
Stream size : 55.0 MiB (5%)
Service kind : Complete Main

Menu

Format:
NTSC

Set List/Chapters:
Megadeth - Wake Up Dead
Def Leppard - Foolin'
Van Halen - Best of Both Worlds
Shy - Break Down the Walls
AC/DC - You Shook Me All Night Long
EZO - Flashback Heart Attack
Judas Priest - Parental Guidance
Mountain - Hard Times
Cinderella - Somebody Save Me
Twisted Sister - We're Not Gonna Take It
Whitesnake - Still of the Night
Warlock - Fight For Rock
Scorpions - Rock You Like A Hurricane
Dokken - Dream Warriors
Overkill - In Union We Stand
Poison - Talk Dirty to Me
David Lee Roth - Goin' Crazy
W.A.S.P. -I Don't Need No Doctor
Stryper - Free
Motley Crue - Home Sweet Home

Checksums or Fingerprints:
# MD5 checksums generated by MD5summer (http://www.md5summer.org)
# Generated 02.12.2017 17:59:47

46a4c73c9df92c57dfb12391d3a0f245 *Video_ts/VIDEO_TS.BUP
46a4c73c9df92c57dfb12391d3a0f245 *Video_ts/VIDEO_TS.IFO
2403206338c34049399215e97049dddd *Video_ts/VIDEO_TS.VOB
d6dab4faa02f02bb1ee27820cb4c359f *Video_ts/VTS_01_0.BUP
d6dab4faa02f02bb1ee27820cb4c359f *Video_ts/VTS_01_0.IFO
6a4cf3b852e61f3ff96c93e2deab170b *Video_ts/VTS_01_1.VOB
3c240a5a4406da1a2179df62f7f602dc *Video_ts/VTS_01_2.VOB
14cfd7f8958a00bda902f4c5125b71a9 *Video_ts/VTS_01_3.VOB
41c03e4cd97c832bd686638395c194fa *Video_ts/VTS_01_4.VOB
fd869b72f22ceccec361ec35bf369499 *Video_ts/VTS_01_5.VOB

2nd TV programm...
Hosted by Howard Stern & Leslie West of Mountain
Attached Files
This post has an attachment which you could see if you were registered.
Reply With Quote
  (#2) Old
diamondclaudio diamondclaudio is offline
Trader Supreme


Join Date: 10.22.04
User ID: 539
Posts: 410

Trader Rating: 0

Rate This Trader!



UL: 748.05 GB
DL: 780.00 GB
Ratio: 0.96
Seed Points: 55,015.20

Sharing Ratio
Policy


Torrent Thank You's: 12
Thanked Posts: 199

Thank you - 12.22.17, 07:55 PM

These ones rocked my world, muchacha amiga, Cherry Bomb!!!
Reply With Quote
  (#3) Old
diamondclaudio diamondclaudio is offline
Trader Supreme


Join Date: 10.22.04
User ID: 539
Posts: 410

Trader Rating: 0

Rate This Trader!



UL: 748.05 GB
DL: 780.00 GB
Ratio: 0.96
Seed Points: 55,015.20

Sharing Ratio
Policy


Torrent Thank You's: 12
Thanked Posts: 199

Thank you - 12.22.17, 08:17 PM

These ones rocked my world, muchacha amiga, Cherry Bomb!!!
Reply With Quote
  (#4) Old
sensi_wasp sensi_wasp is offline
Trader


Join Date: 09.06.13
User ID: 66421
Posts: 179

Trader Rating: 0

Rate This Trader!



UL: 110.24 GB
DL: 139.00 GB
Ratio: 0.79
Seed Points: 6,257.20

Sharing Ratio
Policy


Torrent Thank You's: 0
Thanked Posts: 95

01.06.18, 08:46 AM

thanks
Reply With Quote
Reply

Tags
1987, 25, april, ball, headbanger, v.a.

Thread Tools
Display Modes

Posting Rules
You may not post new threads
You may not post replies
You may not post attachments
You may not edit your posts

BB code is On
Smilies are On
[IMG] code is On
HTML code is Off

Forum Jump

Similar Threads
Thread Thread Starter Forum Replies Last Post
Motorhead, Aerosmith, WASP, - Headbangers Ball - April 18th 1987 (Motorhead) jgomezmiami Video Bit Torrents 11 08.24.15 11:17 AM
Only AOR & Hard Rock DVD Trade list kingofhearts Trade Lists 28 05.08.12 02:33 PM
My trade list mods Trade Lists 0 02.17.12 01:28 AM
DVD TRADE (jazz-soul-funk-rock) artyty Trade Lists 1 10.21.10 09:35 PM



4.jpg


Powered by vBulletin® Version 3.8.5
Copyright ©2000 - 2018, Jelsoft Enterprises Ltd.

WEB HOSTING: Hosting 4 Less

vB Forum Feeds by CinVin

Copyright © 2004-2018 JamToThis.com

vBulletin Skin developed by: vBStyles.com