JamToThis  
iTrader

Is your sharing ratio bad? Donate to our server costs and get upload credit!

Go Back   JamToThis > Bit Torrent Downloads > Video Bit Torrents

Reply
 
Thread Tools Display Modes
  (#1) Old
akon111 akon111 is offline
Trader


Join Date: 11.19.17
User ID: 75546
Posts: 68
Location: Ukraine

Trader Rating: 0

Rate This Trader!



UL: 161.62 GB
DL: 161.18 GB
Ratio: 1.00
Seed Points: 302.20

Sharing Ratio
Policy


Torrent Thank You's: 513
Thanked Posts: 47

Video - Pro Shot V.A. - Headbangers Ball 1989-02-04 - 12.02.17, 02:11 AM

Artist:
V.A.

Show or Bootleg Title:
Headbangers Ball 1989-02-04

Show Venue:
MTV

Source:
DVD - Pro Shot

Video Quality/Production Info:
A

Audio/Video Specs:
General
Complete name : F:\Headbanger's Ball\Headbangers Ball 1989-02-04\VIDEO_TS\VTS_01_1.VOB
Format : MPEG-PS
File size : 1 024 MiB
Duration : 37 s 253 ms
Overall bit rate mode : Variable
Overall bit rate : 231 Mb/s

Video
ID : 224 (0xE0)
Format : MPEG Video
Format version : Version 2
Format profile : Main@Main
Format settings : CustomMatrix / BVOP
Format settings, BVOP : Yes
Format settings, Matrix : Custom
Format settings, GOP : M=3, N=15
Format settings, picture st : Frame
Duration : 37 s 253 ms
Bit rate mode : Variable
Bit rate : 226 Mb/s
Maximum bit rate : 8 000 kb/s
Width : 720 pixels
Height : 480 pixels
Display aspect ratio : 4:3
Frame rate : 29.970 (30000/1001) FPS
Standard : NTSC
Color space : YUV
Chroma subsampling : 4:2:0
Bit depth : 8 bits
Scan type : Interlaced
Scan order : Top Field First
Compression mode : Lossy
Bits/(Pixel*Frame) : 21.793
Time code of first frame : 00:00:00;00
Time code source : Group of pictures header
GOP, Open/Closed : Open
GOP, Open/Closed of first f : Closed
Stream size : 1 002 MiB (98%)

Audio
ID : 189 (0xBD)-128 (0x80)
Format : AC-3
Format/Info : Audio Coding 3
Muxing mode : DVD-Video
Duration : 36 s 583 ms
Bit rate mode : Constant
Bit rate : 256 kb/s
Channel(s) : 2 channels
Channel positions : Front: L R
Sampling rate : 48.0 kHz
Frame rate : 31.250 FPS (1536 SPF)
Bit depth : 16 bits
Compression mode : Lossy
Stream size : 1.12 MiB (0%)
Service kind : Complete Main

Text
ID : 224 (0xE0)-CC3
Format : EIA-608
Muxing mode, more info : Muxed in Video #1
Duration : 37 s 253 ms
Bit rate mode : Constant
Stream size : 0.00 Byte (0%)
CaptionServiceName : CC3

Menu

Format:
NTSC

Set List/Chapters:
Set List/Chapters:
Title 1
Commercials
Antrax interview
Cinderella - The Last Mile
Tesla - Heaven's Trail (No Way Out)
Anthrax - Anti-Social
AC/DC - Flick Of The Switch
Metallica - One
Ratt - Way Cool Jr.
Great White - Rock Me
Iron Maiden - The Clairvoyant
Winger - Seventeen
Kiss - Uh! All Night
Guns N' Roses - Sweet Child O' Mine
Britny Fox - Save The Weak
Living Colour - Cult Of Personality
Dokken - Walk Away
Helloween - I Want Out
Def Leppard - Rock Of Ages
Kix - Blow My Fuse
Aerosmith - Chip Away The Stone
Bulletboys - For The Love Of Money
Overkill - Hello From The Gutter
Queensryche - Eyes Of The Stranger
Anthrax - I'm The Man
Europe - Let The Good Times Rock
Motorhead - Ace Of Spades
Jane's Addiction - Mountain Song
Coroner - Masked Jackal
Danzig - Twist Of Cane
Skid Row - Youth Gone Wild
Celtic Frost - Cherry Orchards
D.R.I. - Suit And Tie Guy
Warrant - Down Boys
The Pandoras - Run Down Love Battery
Kings X - Shot Of Love

Checksums or Fingerprints:
# MD5 checksums generated by MD5summer (http://www.md5summer.org)
# Generated 02.12.2017 12:04:11

e0038b46c918afbaf48988a36ecc160d *VIDEO_TS/VIDEO_TS.BUP
e0038b46c918afbaf48988a36ecc160d *VIDEO_TS/VIDEO_TS.IFO
b5d203d7c212004e5a8372b8bc1b6ac4 *VIDEO_TS/VIDEO_TS.VOB
a66a26aafaabd224864ce755b554a55e *VIDEO_TS/VTS_01_0.BUP
a66a26aafaabd224864ce755b554a55e *VIDEO_TS/VTS_01_0.IFO
de78c5c2b426f4e7012f58c219bbb424 *VIDEO_TS/VTS_01_1.VOB
91d2789fe40652327949ec4dff664bdf *VIDEO_TS/VTS_01_2.VOB
9bc6fce53b17805bd18a37dc28db6c31 *VIDEO_TS/VTS_01_3.VOB
e10d40cbaee3fa36bd23595ffd7c07d3 *VIDEO_TS/VTS_01_4.VOB

Hosted by Anthrax
Attached Files
This post has an attachment which you could see if you were registered.
Reply With Quote
  (#2) Old
Metallican Metallican is offline
Trader Supreme
 
Metallican's Avatar


Join Date: 01.12.06
User ID: 7653
Posts: 539

Trader Rating: 65

Rate This Trader!



UL: 3.42 TB
DL: 1.55 TB
Ratio: 2.21
Seed Points: 4,513.20

Sharing Ratio
Policy


Torrent Thank You's: 2,558
Thanked Posts: 362

12.02.17, 03:20 AM

Thank you again. Really great stuff.
Reply With Quote
  (#3) Old
badbonz69 badbonz69 is offline
Trader God


Join Date: 01.05.05
User ID: 1598
Posts: 1,287

Trader Rating: 0

Rate This Trader!



UL: 576.56 GB
DL: 594.58 GB
Ratio: 0.97
Seed Points: 1,293.20

Sharing Ratio
Policy


Torrent Thank You's: 3
Thanked Posts: 353

12.02.17, 03:52 AM

This one definitely has to go because it has Metallica. They are on the NAB list.
Reply With Quote
  (#4) Old
Mehida Mehida is offline
Trader


Join Date: 12.24.07
User ID: 25253
Posts: 152

Trader Rating: 2

Rate This Trader!



UL: 198.67 GB
DL: 218.90 GB
Ratio: 0.91
Seed Points: 17,668.80

Sharing Ratio
Policy


Torrent Thank You's: 58
Thanked Posts: 95

12.07.17, 08:33 PM

Many thanks for this!
Reply With Quote
Reply

Tags
1989-02-04, ball, headbangers, v.a.

Thread Tools
Display Modes

Posting Rules
You may not post new threads
You may not post replies
You may not post attachments
You may not edit your posts

BB code is On
Smilies are On
[IMG] code is On
HTML code is Off

Forum Jump

Similar Threads
Thread Thread Starter Forum Replies Last Post
V.A. - Headbanger's Ball (June 17, 1989) - Hosted by Adam Curry With TNT akon111 Video Bit Torrents 4 12.07.17 05:27 PM
Only AOR & Hard Rock DVD Trade list kingofhearts Trade Lists 28 05.08.12 02:33 PM



3.jpg


Powered by vBulletin® Version 3.8.5
Copyright ©2000 - 2018, Jelsoft Enterprises Ltd.

WEB HOSTING: Hosting 4 Less

vB Forum Feeds by CinVin

Copyright © 2004-2018 JamToThis.com

vBulletin Skin developed by: vBStyles.com