JamToThis  
iTrader

Is your sharing ratio bad? Donate to our server costs and get upload credit!

Go Back   JamToThis > Bit Torrent Downloads > Video Bit Torrents

Reply
 
Thread Tools Display Modes
  (#1) Old
akon111 akon111 is offline
Trader


Join Date: 11.19.17
User ID: 75546
Posts: 68
Location: Ukraine

Trader Rating: 0

Rate This Trader!



UL: 161.62 GB
DL: 161.18 GB
Ratio: 1.00
Seed Points: 302.20

Sharing Ratio
Policy


Torrent Thank You's: 513
Thanked Posts: 47

Video - Pro Shot V.A. - Headbanger's Ball (June 17, 1989) - Hosted by Adam Curry With TNT - 12.01.17, 02:36 PM

Artist:
V.A.

Show or Bootleg Title:
Headbanger's Ball (June 17, 1989) - Hosted by Adam Curry With TNT

Show Venue:
MTV

Source:
DVD - Pro Shot

Video Quality/Production Info:
A

Audio/Video Specs:
General
Complete name : F:\Headbanger's Ball\Headbanger's Ball (June 17, 1989)\VIDEO_TS\VTS_01_1.VOB
Format : MPEG-PS
File size : 1 024 MiB
Duration : 26 min 34 s
Overall bit rate mode : Variable
Overall bit rate : 5 386 kb/s

Video
ID : 224 (0xE0)
Format : MPEG Video
Format version : Version 2
Format profile : Main@Main
Format settings : BVOP
Format settings, BVOP : Yes
Format settings, Matrix : Default
Format settings, GOP : M=3, N=15
Format settings, picture st : Frame
Duration : 26 min 34 s
Bit rate mode : Variable
Bit rate : 4 895 kb/s
Maximum bit rate : 9 334 kb/s
Width : 720 pixels
Height : 480 pixels
Display aspect ratio : 4:3
Frame rate : 29.970 (30000/1001) FPS
Standard : NTSC
Color space : YUV
Chroma subsampling : 4:2:0
Bit depth : 8 bits
Scan type : Interlaced
Scan order : Top Field First
Compression mode : Lossy
Bits/(Pixel*Frame) : 0.473
Time code of first frame : 00:00:00:00
Time code source : Group of pictures header
GOP, Open/Closed : Open
GOP, Open/Closed of first f : Closed
Stream size : 930 MiB (91%)
Color primaries : BT.601 NTSC
Transfer characteristics : BT.601
Matrix coefficients : BT.601

Audio
ID : 189 (0xBD)-128 (0x80)
Format : AC-3
Format/Info : Audio Coding 3
Muxing mode : DVD-Video
Duration : 26 min 34 s
Bit rate mode : Constant
Bit rate : 384 kb/s
Channel(s) : 2 channels
Channel positions : Front: L R
Sampling rate : 48.0 kHz
Frame rate : 31.250 FPS (1536 SPF)
Bit depth : 16 bits
Compression mode : Lossy
Stream size : 73.0 MiB (7%)
Service kind : Complete Main

Menu

Format:
NTSC

Set List/Chapters:
Title 1
Commercials
TNT interview
TNT - Intuition
Junkyard - Hollywood
Roxx Gang - No Easy Way Out
Suicidal Tendencies - How Will I Laugh Tomorrow
Dangerous Toys - Tears'n, Pleas'n
Doro - Hard Times
Danzig - Mother
Blue Marder - Valley Of The Kings
Victory - Don't Tell No Lies
Silent Rage - Rebel With A Cause
Tesla - Modern Day Cowboy
Nitro - Freight Train
Winger - Headed For A Heartbreak
Crimson Glory - Lonely
Title 2
Commercials

Checksums or Fingerprints:
# MD5 checksums generated by MD5summer (http://www.md5summer.org)
# Generated 02.12.2017 0:31:29

09b926cfcf2bcebd15b56f930ddcec01 *VIDEO_TS/VIDEO_TS.BUP
09b926cfcf2bcebd15b56f930ddcec01 *VIDEO_TS/VIDEO_TS.IFO
b23f4fe1e41911c335b6b60c79e549e2 *VIDEO_TS/VIDEO_TS.VOB
6242256ebce43ee9d6a25a8a32317710 *VIDEO_TS/VTS_01_0.BUP
6242256ebce43ee9d6a25a8a32317710 *VIDEO_TS/VTS_01_0.IFO
855920901e877f40767ce56067de0cc6 *VIDEO_TS/VTS_01_1.VOB
b05a41e54a719bee8f9274703e886799 *VIDEO_TS/VTS_01_2.VOB
5800330ca844ed7bac979d723b6596b8 *VIDEO_TS/VTS_01_3.VOB
c7c3342c736ba02b45279f8362bb21b5 *VIDEO_TS/VTS_01_4.VOB
9fb95f3e51c1607bc5347603c405b00f *VIDEO_TS/VTS_02_0.BUP
9fb95f3e51c1607bc5347603c405b00f *VIDEO_TS/VTS_02_0.IFO
f7df5ed38706861c140ed5f76f9ebf3b *VIDEO_TS/VTS_02_1.VOB

FIXED
Attached Files
This post has an attachment which you could see if you were registered.
Reply With Quote
  (#2) Old
freegersun666 freegersun666 is offline
Trader Supreme
 
freegersun666's Avatar


Join Date: 09.06.15
User ID: 70895
Posts: 463

Trader Rating: -1

Rate This Trader!



UL: 7.98 TB
DL: 1.45 TB
Ratio: 5.51
Seed Points: 955,970.60

Sharing Ratio
Policy


Torrent Thank You's: 0
Thanked Posts: 442

Love hbb - 12.01.17, 06:44 PM

I wish i had the skid row ace frehley episode
Reply With Quote
  (#3) Old
super-igoryok super-igoryok is offline
Trader God


Join Date: 04.03.12
User ID: 59116
Posts: 1,099

Trader Rating: 16

Rate This Trader!



UL: 4.65 TB
DL: 3.02 TB
Ratio: 1.54
Seed Points: 225,828.40

Sharing Ratio
Policy


Torrent Thank You's: 541
Thanked Posts: 895

12.02.17, 02:18 AM

Thank you!
Reply With Quote
  (#4) Old
pearsy76 pearsy76 is offline
Trader Supreme


Join Date: 05.18.09
User ID: 37566
Posts: 404
Location: australia

Trader Rating: 0

Rate This Trader!



UL: 1.37 TB
DL: 1.19 TB
Ratio: 1.15
Seed Points: 251,281.60

Sharing Ratio
Policy


Torrent Thank You's: 4
Thanked Posts: 371

Thumbs up 12.04.17, 06:20 AM

These are bloody awesome!! Keep them coming
Reply With Quote
  (#5) Old
Mehida Mehida is offline
Trader


Join Date: 12.24.07
User ID: 25253
Posts: 152

Trader Rating: 2

Rate This Trader!



UL: 198.67 GB
DL: 218.90 GB
Ratio: 0.91
Seed Points: 17,668.80

Sharing Ratio
Policy


Torrent Thank You's: 58
Thanked Posts: 95

12.07.17, 05:27 PM

Wow, thanks a lot! I've been looking for this one for a while.

Last edited by Mehida; 12.07.17 at 05:27 PM.
Reply With Quote
Reply

Tags
17, 1989, adam, ball, curry, headbanger, hosted, june, tnt, v.a.

Thread Tools
Display Modes

Posting Rules
You may not post new threads
You may not post replies
You may not post attachments
You may not edit your posts

BB code is On
Smilies are On
[IMG] code is On
HTML code is Off

Forum Jump

Similar Threads
Thread Thread Starter Forum Replies Last Post
V.A. - Headbanger's Ball (June 17, 1989) - Hosted by Adam Curry With TNT akon111 Pulled Video Torrents 2 04.04.18 04:46 PM
Only AOR & Hard Rock DVD Trade list kingofhearts Trade Lists 28 05.08.12 02:33 PM
My trade list mods Trade Lists 0 02.17.12 01:28 AM



1.jpg


Powered by vBulletin® Version 3.8.5
Copyright ©2000 - 2018, Jelsoft Enterprises Ltd.

WEB HOSTING: Hosting 4 Less

vB Forum Feeds by CinVin

Copyright © 2004-2018 JamToThis.com

vBulletin Skin developed by: vBStyles.com