JamToThis  
iTrader

Is your sharing ratio bad? Donate to our server costs and get upload credit!

Go Back   JamToThis > Bit Torrent Downloads > Video Bit Torrents

Reply
 
Thread Tools Display Modes
  (#1) Old
shuberka2016 shuberka2016 is online now
Trader Supreme


Join Date: 03.22.16
User ID: 71927
Posts: 356
Location: Uzbekistan

Trader Rating: 0

Rate This Trader!



UL: 1.53 TB
DL: 154.89 GB
Ratio: 10.14
Seed Points: 7,577.20

Sharing Ratio
Policy


Torrent Thank You's: 4,585
Thanked Posts: 52

Video - Pro Shot Led Zeppelin - July 17, 1977 Live In Seattle, Washington Kingdome Seattle - 10.03.17, 05:39 AM

Artist:
Led Zeppelin

Show or Bootleg Title:
July 17, 1977 Live In Seattle, Washington Kingdome Seattle

Show Venue:


Source:
DVD - Pro Shot

Video Quality/Production Info:


Audio/Video Specs:
VIDEO SPECS:
ID : 224 (0xE0)
Format : MPEG Video
Format version : Version 2
Format profile : Main@Main
Format settings, BVOP : Yes
Format settings, Matrix : Custom
Format settings, GOP : M=3, N=16
Format settings, picture st : Frame
Duration : 27 min 31 s
Bit rate mode : Constant
Bit rate : 4 877 kb/s
Width : 720 pixels
Height : 480 pixels
Display aspect ratio : 4:3
Frame rate : 29.970 (30000/1001) FPS
Standard : NTSC
Color space : YUV
Chroma subsampling : 4:2:0
Bit depth : 8 bits
Scan type : Interlaced
Scan order : Top Field First
Compression mode : Lossy
Bits/(Pixel*Frame) : 0.471
Time code of first frame : 00:00:00:00
Time code source : Group of pictures header
GOP, Open/Closed : Closed
Stream size : 959 MiB (94%)
Writing library : TMPGEnc 2.513.53.162
Color primaries : BT.601 PAL
Transfer characteristics : BT.470 System B, BT.470 System G
Matrix coefficients : FCC 73.682

AUDIO SPECS:
ID : 192 (0xC0)
Format : MPEG Audio
Format version : Version 1
Format profile : Layer 2
Duration : 27 min 31 s
Bit rate mode : Constant
Bit rate : 224 kb/s
Channel(s) : 2 channels
Sampling rate : 48.0 kHz
Compression mode : Lossy
Stream size : 44.1 MiB (4%)

Format:
NTSC

Set List/Chapters:
DVD 1:
The Song Remains The Same
Sick Again
Nobody's Fault Buy Mine
Over The Hills And Far Away
Since I've Been Loving You
No Quarter
Ten Years Gone
The Battle of Evermore
Going To California
Black Country Woman
Brom-Y-Aur Stomp

DVD 2:
White Summer / Black Mountain Side
Kashmir
Moby Dick
Guitar Solo
Achilles Last Stand
Stairway To Heaven
Whole Lotta Love
Rock And Roll

Checksums or Fingerprints:
Attached Files
This post has an attachment which you could see if you were registered.
Reply With Quote
  (#2) Old
zubo zubo is offline
Trader


Join Date: 09.14.11
User ID: 55726
Posts: 181

Trader Rating: 0

Rate This Trader!



UL: 698.53 MB
DL: 28.84 GB
Ratio: 0.02
Seed Points: 36.60

Sharing Ratio
Policy


Torrent Thank You's: 0
Thanked Posts: 174

10.03.17, 09:26 AM

Thank you.
Attached Images
This post has an attachment which you could see if you were registered.
This post has an attachment which you could see if you were registered.
Reply With Quote
  (#3) Old
bc3ironmaiden bc3ironmaiden is offline
Trader


Join Date: 11.20.07
User ID: 23905
Posts: 102

Trader Rating: 0

Rate This Trader!



UL: 420.14 GB
DL: 200.32 GB
Ratio: 2.10
Seed Points: 9,519.40

Sharing Ratio
Policy


Torrent Thank You's: 108
Thanked Posts: 60

10.04.17, 04:06 PM

Thanks !!!
Reply With Quote
  (#4) Old
Lizzy7141990 Lizzy7141990 is offline
Trader Supreme


Join Date: 03.20.11
User ID: 52487
Posts: 324

Trader Rating: 0

Rate This Trader!



UL: 880.10 GB
DL: 683.00 GB
Ratio: 1.29
Seed Points: 14,479.60

Sharing Ratio
Policy


Torrent Thank You's: 0
Thanked Posts: 211

10.04.17, 10:05 PM

Thank You
Reply With Quote
Reply

Tags
17, 1977, july, kingdome, led, live, seattle, washington, zeppelin

Thread Tools
Display Modes

Posting Rules
You may not post new threads
You may not post replies
You may not post attachments
You may not edit your posts

BB code is On
Smilies are On
[IMG] code is On
HTML code is Off

Forum Jump

Similar Threads
Thread Thread Starter Forum Replies Last Post
My DVD trade list Metromania Trade Lists 5 08.29.13 10:30 PM
My trade list mods Trade Lists 0 02.17.12 01:28 AM
my trader list galaxy Trade Lists 0 12.20.10 01:38 PM



7.jpg


Powered by vBulletin® Version 3.8.5
Copyright ©2000 - 2017, Jelsoft Enterprises Ltd.

WEB HOSTING: Hosting 4 Less

vB Forum Feeds by CinVin

Copyright © 2004-2017 JamToThis.com

vBulletin Skin developed by: vBStyles.com