Is your sharing ratio bad? Donate to our server costs and get upload credit!

Go Back   JamToThis > Bit Torrent Downloads > Video Bit Torrents

Thread Tools Display Modes
  (#1) Old
shuberka2016 shuberka2016 is offline
Trader Supreme

Join Date: 03.22.16
User ID: 71927
Posts: 382
Location: Uzbekistan

Trader Rating: 0

Rate This Trader!

UL: 1.72 TB
DL: 162.17 GB
Ratio: 10.89
Seed Points: 8,707.60

Sharing Ratio

Torrent Thank You's: 5,214
Thanked Posts: 53

Video - Audience ROGER WATERS - 2017-07-20 Nationwide Center, Columbus, Ohio - 07.29.17, 04:42 AM


Show or Bootleg Title:
2017-07-20 Nationwide Center, Columbus, Ohio

Show Venue:

DVD - Audience

Video Quality/Production Info:

Audio/Video Specs:


Set List/Chapters:
Roger Waters
Nationwide Arena
Columbus, Ohio

Panasonic DMC-ZS8>PC>YOU in HD
MASTER COPY Jbarrowsrn

One of These Days
Breathe (Reprise)
The Great Gig in the Sky
Welcome to the Machine
When We Were Young MISSING
The Last Refugee MISSING
Picture That MISSING
Wish You Were Here Most Missing(((
The Happiest Days of Our Lives
Another Brick in the Wall Part 2
Another Brick in the Wall Part 3

Set 2:
Pigs (Three Different Ones)
Us and Them
Smell the Roses MISSING
Brain Damage
Bring the Boys Back Home
Comfortably Numb

Very busy week. Phish in Pittsburgh on Wednesday
and Roger in Columbus on Thursday didnt give me
enough time to fully recharge all my batteries!
So, I did not record the new songs and I ran completely
out right before the band took their bows and goodnight!
Nobody was sitting in front of me so I could hold on my knee
and very few people walking back and forth and nobody standing
Problem was that I was quite a distance but after reviewing a
few songs, it looks fine. I have a battery change somewhere twice
and must have hit record twice on Wish you were here and missed
most of the song(((. SOme advice for those yet to see him, A huge,
huge screen cuts down center of the venue for awesome video projections.
Problem is you can only see 1 side of the stage and Roger spent most of
his time on right side of stage so plan accordingly. Most of the video is
from screens because of lighting and such.
Lastly, Enjoy and share, Post anywhere you like!!


Format : MPEG-4
Format profile : QuickTime
Codec ID : qt 2007.09.04 (qt /pana)
File size : 391 MiB
Overall bit rate mode : Variable
Overall bit rate : 18.3 Mb/s
Writing library : pana
IsTruncated : Yes

Format : JPEG
Codec ID : jpeg
Bit rate mode : Variable
Bit rate : 18.0 Mb/s
Width : 1 280 pixels
Height : 720 pixels
Display aspect ratio : 16:9
Frame rate mode : Constant
Frame rate : 30.000 FPS
Color space : YUV
Chroma subsampling : 4:2:0
Bit depth : 8 bits
Compression mode : Lossy
Bits/(Pixel*Frame) : 0.652
Stream size : 385 MiB (98%)

Format : PCM
Format settings, Endianness : Big
Format settings, Sign : Signed
Codec ID : twos
Bit rate mode : Constant
Bit rate : 256 kb/s
Channel(s) : 1 channel
Sampling rate : 16.0 kHz
Bit depth : 16 bits
Stream size : 5.46 MiB (1%)

Checksums or Fingerprints:
Attached Images
This post has an attachment which you could see if you were registered.
This post has an attachment which you could see if you were registered.
This post has an attachment which you could see if you were registered.
This post has an attachment which you could see if you were registered.
Attached Files
This post has an attachment which you could see if you were registered.
Reply With Quote
The Following 11 Members Thank shuberka2016 For This Torrent

2017-07-20, center, columbus, nationwide, ohio, roger, waters

Thread Tools
Display Modes

Posting Rules
You may not post new threads
You may not post replies
You may not post attachments
You may not edit your posts

BB code is On
Smilies are On
[IMG] code is On
HTML code is Off

Forum Jump

Similar Threads
Thread Thread Starter Forum Replies Last Post
UK DVD trader abramlord Non-Bit Torrent Trading 5 05.22.13 12:51 AM
my trade list auger Trade Lists 4 04.12.13 01:29 AM
Black Sabbath - Columbus, OH July 3, 1995 jbarrowsrn Audio Bit Torrents 0 10.17.12 12:14 PM
www.XPLICITBOOTLEGS.com TripKore Trade Lists 41 08.04.12 11:52 PM
my trade lists e-mail me for requests mirror69 Trade Lists 0 06.07.10 08:09 AM


Powered by vBulletin® Version 3.8.5
Copyright ©2000 - 2018, Jelsoft Enterprises Ltd.

WEB HOSTING: Hosting 4 Less

vB Forum Feeds by CinVin

Copyright © 2004-2017 JamToThis.com

vBulletin Skin developed by: vBStyles.com