JamToThis  
iTrader

Is your sharing ratio bad? Donate to our server costs and get upload credit!

Go Back   JamToThis > Bit Torrent Downloads > Video Bit Torrents

Reply
 
Thread Tools Display Modes
  (#1) Old
juzzi juzzi is offline
Trader Supreme


Join Date: 11.13.06
User ID: 14004
Posts: 539

Trader Rating: 27

Rate This Trader!



UL: 0.99 TB
DL: 947.51 GB
Ratio: 1.06
Seed Points: 3,378.40

Sharing Ratio
Policy


Torrent Thank You's: 4,007
Thanked Posts: 287

Video - Audience Scorpions - Merida,Spain 2017-07-14 - 07.23.17, 08:17 AM

Artist:
Scorpions

Show or Bootleg Title:
Merida,Spain 2017-07-14

Show Venue:


Source:
DVD - Audience

Video Quality/Production Info:
Video ok, Audio A-

Audio/Video Specs:
General
Complete name : C:\Users\Juzzi\Desktop\Scorpions merida 2017 dvd\VIDEO_TS\VTS_01_1.VOB
Format : MPEG-PS
File size : 1 000 MiB
Duration : 22mn 8s
Overall bit rate mode : Variable
Overall bit rate : 6 313 Kbps

Video
ID : 224 (0xE0)
Format : MPEG Video
Format version : Version 2
Format profile : Main@Main
Format settings, BVOP : Yes
Format settings, Matrix : Default
Format settings, GOP : M=3, N=12
Format settings, picture struc : Frame
Duration : 22mn 8s
Bit rate mode : Variable
Bit rate : 5 996 Kbps
Maximum bit rate : 9 500 Kbps
Width : 720 pixels
Height : 576 pixels
Display aspect ratio : 4:3
Frame rate : 25.000 fps
Standard : PAL
Color space : YUV
Chroma subsampling : 4:2:0
Bit depth : 8 bits
Scan type : Interlaced
Scan order : Bottom Field First
Compression mode : Lossy
Bits/(Pixel*Frame) : 0.578
Time code of first frame : 00:00:00:00
Time code source : Group of pictures header
GOP, Open/Closed : Open
GOP, Open/Closed of first fram : Closed
Stream size : 950 MiB (95%)

Audio
ID : 189 (0xBD)-128 (0x80)
Format : AC-3
Format/Info : Audio Coding 3
Mode extension : CM (complete main)
Format settings, Endianness : Big
Muxing mode : DVD-Video
Duration : 22mn 8s
Bit rate mode : Constant
Bit rate : 192 Kbps
Channel(s) : 2 channels
Channel positions : Front: L R
Sampling rate : 48.0 KHz
Frame rate : 31.250 fps (1536 spf)
Compression mode : Lossy
Stream size : 30.4 MiB (3%)

Menu

Format:
PAL

Set List/Chapters:
Hello!!!

Yes it is tube rip off,but so what...
Okey,i check all sites like this and dimeadozen,traders den etc...and i cant find any scorpions bootleg dvd with Mikkey Dee,so i made it myself...

I think quality is ok even it is youtube rip off...

Thanx for the filmers... i just edited and compiled this dvd and made menus with some old demo songs ;D

this is incomplete set,but it is very cool..

I hope you like it

Hellstorm79 (Juzzi)


Going out with a bang
Make it real
The zoo
Coast to coast
Steamrock fever (cut)
Always somewhere
Eye of the storm
Send me an angel
Wind of change
Rock n roll band
Overkill (cut)
Blackout(cut)
Big city nights (cut)
Comin`home
Still loving you
Rock you like a hurricane
Rudolf Schenker interview


Hellstorm79 (juzzi)

Checksums or Fingerprints:
# MD5 checksums generated by MD5summer (http://www.md5summer.org)
# Generated 23.7.2017 18:16:14

01334dbd4df41d6f68aa06fb440c3c5d *VIDEO_TS.BUP
01334dbd4df41d6f68aa06fb440c3c5d *VIDEO_TS.IFO
bee64b8b701857ffe30826b90473217e *VIDEO_TS.VOB
c6fa72dc74eaf719b63cabf6562eb624 *VTS_01_0.BUP
c6fa72dc74eaf719b63cabf6562eb624 *VTS_01_0.IFO
38647834dc976220b5cc9605d6869c5e *VTS_01_0.VOB
78946cd48aa532ce50559c84889efc2f *VTS_01_1.VOB
debea24b1938d49bc07763657e8861e7 *VTS_01_2.VOB
ae6343a30949ad34c48f418b7763779e *VTS_01_3.VOB
Attached Images
This post has an attachment which you could see if you were registered.
This post has an attachment which you could see if you were registered.
This post has an attachment which you could see if you were registered.
This post has an attachment which you could see if you were registered.
This post has an attachment which you could see if you were registered.
Attached Files
This post has an attachment which you could see if you were registered.
Reply With Quote
  (#2) Old
benuto benuto is offline
Trader God


Join Date: 11.21.09
User ID: 41940
Posts: 878

Trader Rating: 0

Rate This Trader!



UL: 1.14 TB
DL: 1.43 TB
Ratio: 0.79
Seed Points: 593,662.80

Sharing Ratio
Policy


Torrent Thank You's: 194
Thanked Posts: 441

07.24.17, 09:30 AM

Reply With Quote
  (#3) Old
falikiss falikiss is offline
Trader


Join Date: 08.20.12
User ID: 61648
Posts: 171

Trader Rating: 0

Rate This Trader!



UL: 25.07 GB
DL: 110.19 GB
Ratio: 0.23
Seed Points: 1,011.80

Sharing Ratio
Policy


Torrent Thank You's: 0
Thanked Posts: 169

08.14.17, 07:20 AM

thank
Quote:
Originally Posted by juzzi View Post
Artist:
Scorpions

Show or Bootleg Title:
Merida,Spain 2017-07-14

Show Venue:


Source:
DVD - Audience

Video Quality/Production Info:
Video ok, Audio A-

Audio/Video Specs:
General
Complete name : C:\Users\Juzzi\Desktop\Scorpions merida 2017 dvd\VIDEO_TS\VTS_01_1.VOB
Format : MPEG-PS
File size : 1 000 MiB
Duration : 22mn 8s
Overall bit rate mode : Variable
Overall bit rate : 6 313 Kbps

Video
ID : 224 (0xE0)
Format : MPEG Video
Format version : Version 2
Format profile : Main@Main
Format settings, BVOP : Yes
Format settings, Matrix : Default
Format settings, GOP : M=3, N=12
Format settings, picture struc : Frame
Duration : 22mn 8s
Bit rate mode : Variable
Bit rate : 5 996 Kbps
Maximum bit rate : 9 500 Kbps
Width : 720 pixels
Height : 576 pixels
Display aspect ratio : 4:3
Frame rate : 25.000 fps
Standard : PAL
Color space : YUV
Chroma subsampling : 4:2:0
Bit depth : 8 bits
Scan type : Interlaced
Scan order : Bottom Field First
Compression mode : Lossy
Bits/(Pixel*Frame) : 0.578
Time code of first frame : 00:00:00:00
Time code source : Group of pictures header
GOP, Open/Closed : Open
GOP, Open/Closed of first fram : Closed
Stream size : 950 MiB (95%)

Audio
ID : 189 (0xBD)-128 (0x80)
Format : AC-3
Format/Info : Audio Coding 3
Mode extension : CM (complete main)
Format settings, Endianness : Big
Muxing mode : DVD-Video
Duration : 22mn 8s
Bit rate mode : Constant
Bit rate : 192 Kbps
Channel(s) : 2 channels
Channel positions : Front: L R
Sampling rate : 48.0 KHz
Frame rate : 31.250 fps (1536 spf)
Compression mode : Lossy
Stream size : 30.4 MiB (3%)

Menu

Format:
PAL

Set List/Chapters:
Hello!!!

Yes it is tube rip off,but so what...
Okey,i check all sites like this and dimeadozen,traders den etc...and i cant find any scorpions bootleg dvd with Mikkey Dee,so i made it myself...

I think quality is ok even it is youtube rip off...

Thanx for the filmers... i just edited and compiled this dvd and made menus with some old demo songs ;D

this is incomplete set,but it is very cool..

I hope you like it

Hellstorm79 (Juzzi)


Going out with a bang
Make it real
The zoo
Coast to coast
Steamrock fever (cut)
Always somewhere
Eye of the storm
Send me an angel
Wind of change
Rock n roll band
Overkill (cut)
Blackout(cut)
Big city nights (cut)
Comin`home
Still loving you
Rock you like a hurricane
Rudolf Schenker interview


Hellstorm79 (juzzi)

Checksums or Fingerprints:
# MD5 checksums generated by MD5summer (http://www.md5summer.org)
# Generated 23.7.2017 18:16:14

01334dbd4df41d6f68aa06fb440c3c5d *VIDEO_TS.BUP
01334dbd4df41d6f68aa06fb440c3c5d *VIDEO_TS.IFO
bee64b8b701857ffe30826b90473217e *VIDEO_TS.VOB
c6fa72dc74eaf719b63cabf6562eb624 *VTS_01_0.BUP
c6fa72dc74eaf719b63cabf6562eb624 *VTS_01_0.IFO
38647834dc976220b5cc9605d6869c5e *VTS_01_0.VOB
78946cd48aa532ce50559c84889efc2f *VTS_01_1.VOB
debea24b1938d49bc07763657e8861e7 *VTS_01_2.VOB
ae6343a30949ad34c48f418b7763779e *VTS_01_3.VOB
Reply With Quote
Reply

Tags
2017-07-14, merida, scorpions, spain

Thread Tools
Display Modes

Posting Rules
You may not post new threads
You may not post replies
You may not post attachments
You may not edit your posts

BB code is On
Smilies are On
[IMG] code is On
HTML code is Off

Forum Jump

Similar Threads
Thread Thread Starter Forum Replies Last Post
SCORPIONS Guest On L'ENORME TV's 'Une Dose 2 Metal' (Video) Rufus Rock News 0 01.24.14 04:22 AM
SCORPIONS' KLAUS MEINE Interviewed On 'Rich Davenport's Rock Show' (Audio) Rufus Rock News 0 01.19.14 09:30 AM
SCORPIONS To Release 'MTV Unplugged' In November Rufus Rock News 0 10.17.13 07:01 AM
My bootleg list (asian bands a priority, but I like ALMOST everything) StarslayerJo Trade Lists 1 10.19.12 11:35 PM
Scorpions - Final Sting: Live in Chelyabinsk, Russia (2012-04-22) Kurtic Video Bit Torrents 3 06.02.12 08:55 PM



6.jpg


Powered by vBulletin® Version 3.8.5
Copyright ©2000 - 2018, Jelsoft Enterprises Ltd.

WEB HOSTING: Hosting 4 Less

vB Forum Feeds by CinVin

Copyright © 2004-2017 JamToThis.com

vBulletin Skin developed by: vBStyles.com