JamToThis  
iTrader

Is your sharing ratio bad? Donate to our server costs and get upload credit!

Go Back   JamToThis > Bit Torrent Downloads > Video Bit Torrents

Reply
 
Thread Tools Display Modes
  (#1) Old
TheDoorsLegend TheDoorsLegend is offline
Trader Supreme
 
TheDoorsLegend's Avatar


Join Date: 11.17.12
User ID: 63129
Posts: 531
Location: Mexico

Trader Rating: 12

Rate This Trader!



UL: 308.16 GB
DL: 205.17 GB
Ratio: 1.50
Seed Points: 2,595.80

Sharing Ratio
Policy


Torrent Thank You's: 1,930
Thanked Posts: 331

Send a message via Skype™ to TheDoorsLegend
Video - Pro Shot Pink Floyd - Venice, Italy 1989-07 15 (Cochon Production) - 05.17.17, 06:15 PM

Artist:
Pink Floyd

Show or Bootleg Title:
Venice, Italy 1989-07 15 (Cochon Production)

Show Venue:
The Grant Canal

Source:
DVD - Pro Shot

Video Quality/Production Info:
Audio / Video: B+

Audio/Video Specs:
Video
ID : 224 (0xE0)
Format : MPEG Video
Format version : Version 2
Format profile : Main@Main
Format settings, BVOP : Yes
Format settings, Matrix : Default
Format settings, GOP : Variable
Format settings, picture st : Frame
Duration : 30 min 55 s
Bit rate mode : Variable
Bit rate : 4 344 kb/s
Maximum bit rate : 6 000 kb/s
Width : 720 pixels
Height : 576 pixels
Display aspect ratio : 4:3
Frame rate : 25.000 FPS
Standard : PAL
Color space : YUV
Chroma subsampling : 4:2:0
Bit depth : 8 bits
Scan type : Interlaced
Scan order : Top Field First
Compression mode : Lossy
Bits/(Pixel*Frame) : 0.419
Time code of first frame : 00:00:00:00
Time code source : Group of pictures header
Stream size : 961 MiB (94%)

Audio
ID : 189 (0xBD)-128 (0x80)
Format : AC-3
Format/Info : Audio Coding 3
Format settings, Endianness : Big
Muxing mode : DVD-Video
Duration : 30 min 55 s
Bit rate mode : Constant
Bit rate : 192 kb/s
Channel(s) : 2 channels
Channel positions : Front: L R
Sampling rate : 48.0 kHz
Frame rate : 31.250 FPS (1536 spf)
Bit depth : 16 bits
Compression mode : Lossy
Stream size : 42.5 MiB (4%)
Service kind : Complete Main

Format:
NTSC

Set List/Chapters:
- Pre Concert
- Jingle
- Shine On You Crazy Diamon (Part 1)
- Learning To Fly
- Yet Another Movie
- Round And Around
- Sorrow
- The Dogs Of War
- On The Turning Away
- Time
- The Great Gig In The Sky
- Wish You Were Here
- Money
- Another Brick In The Wall (Part 2)
- Comfortably Numb
- Run Like Hell

*Bonus* - German report on the 1988 show + French report 1989 Moscow hows

Checksums or Fingerprints:
# MD5 checksums generated by MD5summer (http://www.md5summer.org)
# Generated 2007-03-15 22:12:06

70bcbe757177ef38c1e10598edf8be40 *VIDEO_TS.BUP
70bcbe757177ef38c1e10598edf8be40 *VIDEO_TS.IFO
e106eb7246164c8fdf332ef92b76b93c *VIDEO_TS.VOB
d2678233a59f3c8ae668c5c42806fffb *VTS_01_0.BUP
d2678233a59f3c8ae668c5c42806fffb *VTS_01_0.IFO
86f69293caefc1e0d58583056b31f8e2 *VTS_01_0.VOB
53e5d10012110d37c352df5c026afec5 *VTS_01_1.VOB
f388a2cf4f94bbaa38af966702fbcf7b *VTS_01_2.VOB
8205d7d9a65b4f78a766199b6d2969ce *VTS_01_3.VOB
252e37f24bf40a30adf44bb69da566c2 *VTS_01_4.VOB
28d296f160ef618650a0342d9d6409f6 *VTS_02_0.BUP
28d296f160ef618650a0342d9d6409f6 *VTS_02_0.IFO
c1f0c6ee7ba23a308bbfc0472fe50b8a *VTS_02_0.VOB
631d3b93531efb367b4045a2aa394997 *VTS_02_1.VOB
5d8e0ed19b4fe367415cff616937531f *VTS_03_0.BUP
5d8e0ed19b4fe367415cff616937531f *VTS_03_0.IFO
c1f0c6ee7ba23a308bbfc0472fe50b8a *VTS_03_0.VOB
fe3873f093a09d23b271b0d78781986a *VTS_03_1.VOB
6a9fb265680a4d022bbdf6e5cffccfe3 *VTS_04_0.BUP
6a9fb265680a4d022bbdf6e5cffccfe3 *VTS_04_0.IFO
c1f0c6ee7ba23a308bbfc0472fe50b8a *VTS_04_0.VOB
4ac8cb46a7c336b6484d30cf1622d2d3 *VTS_04_1.VOB
1697278d1d5cf4b57a38cb691a5ed6ce *VTS_05_0.BUP
1697278d1d5cf4b57a38cb691a5ed6ce *VTS_05_0.IFO
c1f0c6ee7ba23a308bbfc0472fe50b8a *VTS_05_0.VOB
f7b5f5618819171cfd4b86cd239a128d *VTS_05_1.VOB
Attached Images
This post has an attachment which you could see if you were registered.
This post has an attachment which you could see if you were registered.
This post has an attachment which you could see if you were registered.
This post has an attachment which you could see if you were registered.
This post has an attachment which you could see if you were registered.
Attached Files
This post has an attachment which you could see if you were registered.
Reply With Quote
The Following 10 Members Thank TheDoorsLegend For This Torrent
Reply

Tags
15, 1989-07, cochon, floyd, italy, pink, production, venice

Thread Tools
Display Modes

Posting Rules
You may not post new threads
You may not post replies
You may not post attachments
You may not edit your posts

BB code is On
Smilies are On
[IMG] code is On
HTML code is Off

Forum Jump

Similar Threads
Thread Thread Starter Forum Replies Last Post
Trade List - Variable - Metallica, Hank Jr., Venom, Woodstock '69, Pink Floyd RandallFloyd Trade Lists 1 04.08.16 12:44 AM
Heavy/Power Bootleg Empire (dvd, bluray and audio) Hallowed Trade Lists 1 11.25.15 02:35 PM
My Heavy/Power Bootlegs trade list Hallowed Trade Lists 3 08.03.14 06:50 AM
My bootleg list (asian bands a priority, but I like ALMOST everything) StarslayerJo Trade Lists 1 10.19.12 10:35 PM



8.jpg


Powered by vBulletin® Version 3.8.5
Copyright ©2000 - 2017, Jelsoft Enterprises Ltd.

WEB HOSTING: Hosting 4 Less

vB Forum Feeds by CinVin

Copyright © 2004-2017 JamToThis.com

vBulletin Skin developed by: vBStyles.com