JamToThis  
iTrader

Is your sharing ratio bad? Donate to our server costs and get upload credit!

Go Back   JamToThis > Bit Torrent Downloads > Video Bit Torrents

Reply
 
Thread Tools Display Modes
  (#1) Old
TheDoorsLegend TheDoorsLegend is offline
Trader Supreme
 
TheDoorsLegend's Avatar


Join Date: 11.17.12
User ID: 63129
Posts: 531
Location: Mexico

Trader Rating: 12

Rate This Trader!



UL: 308.16 GB
DL: 205.17 GB
Ratio: 1.50
Seed Points: 2,595.80

Sharing Ratio
Policy


Torrent Thank You's: 1,914
Thanked Posts: 331

Send a message via Skype™ to TheDoorsLegend
Video - Audience Black Sabbath 2012-08-03 - Chicago, IL - 05.16.17, 03:37 PM

Artist:
Black Sabbath 2012-08-03

Show or Bootleg Title:
Chicago, IL

Show Venue:
Grant Park (Lollapalloza) (Multicam)

Source:
DVD - Audience

Video Quality/Production Info:
Audio / Video: B

Audio/Video Specs:
Black Sabbath
Reunion Tour 2012
Chicago, IL, Grant Park, Lollapalooza
August 3, 2012
A Wrong Man DVD Creation (MULTICAM)




VIDEO SPECS
ID : 224 (0xE0)
Format : MPEG Video
Format version : Version 2
Format profile : Main@Main
Format settings, BVOP : Yes
Format settings, Matrix : Custom
Format settings, GOP : M=3, N=15
Duration : 24 min 8 s
Bit rate mode : Variable
Bit rate : 4 278 kb/s
Maximum bit rate : 8 000 kb/s
Width : 720 pixels
Height : 480 pixels
Display aspect ratio : 16:9
Frame rate : 29.970 (30000/1001) FPS
Standard : NTSC
Color space : YUV
Chroma subsampling : 4:2:0
Bit depth : 8 bits
Scan type : Progressive
Compression mode : Lossy
Bits/(Pixel*Frame) : 0.413
Time code of first frame : 00:00:00:00
Time code source : Group of pictures header
GOP, Open/Closed : Closed
Stream size : 738 MiB (72%)
Color primaries : BT.601 NTSC
Transfer characteristics : BT.601
Matrix coefficients : BT.601

AUDIO SPECS
ID : 189 (0xBD)-160 (0xA0)
Format : PCM
Format settings, Endianness : Big
Format settings, Sign : Signed
Muxing mode : DVD-Video
Duration : 24 min 7 s
Bit rate mode : Constant
Bit rate : 1 536 kb/s
Channel(s) : 2 channels
Sampling rate : 48.0 kHz
Bit depth : 16 bits
Stream size : 265 MiB (26%)

Format:
NTSC

Set List/Chapters:
Intro
Black Sabbath
The Wizard
Behind The Wall of Sleep
N.I.B.
Into The Void
Under The Sun
Snowblind
War Pigs
Electric Funeral
Sweet Leaf
Sympton of The Universe / Drum Solo
Iron Man
Fairies Wear Boots
Dirty Man
Children of the Grave
Sabbath Bloody Sabbath
Paranoid

Checksums or Fingerprints:
# MD5 checksums generated by MD5summer (http://www.md5summer.org)
# Generated 14/05/2017 11:35:52 p.m.

d2764c69e8e926db30d53b7a6a5c1ae7 *VIDEO_TS/VIDEO_TS.BUP
d2764c69e8e926db30d53b7a6a5c1ae7 *VIDEO_TS/VIDEO_TS.IFO
5f7973ff9e4152827994d4149c8af39d *VIDEO_TS/VIDEO_TS.VOB
05eab5ed4177bdc7134790d49a7a9ce6 *VIDEO_TS/VTS_01_0.BUP
05eab5ed4177bdc7134790d49a7a9ce6 *VIDEO_TS/VTS_01_0.IFO
97f8e134cc14b4545867070006aae150 *VIDEO_TS/VTS_01_0.VOB
97bedff3e747d456ebe515b2b2411fb2 *VIDEO_TS/VTS_01_1.VOB
47bb4ae0cf363a9edb5e705b0bab6926 *VIDEO_TS/VTS_01_2.VOB
d021d9de0a730cdcddf5dedd960d98b3 *VIDEO_TS/VTS_01_3.VOB
9ea6deb51a5f27fb7c18a6ffe7b4ec43 *VIDEO_TS/VTS_01_4.VOB
83f0bfcf9770a23b97d90515fc82d22a *VIDEO_TS/VTS_01_5.VOB
6029ca3ac144bad937856bd2086cfdb6 *DVD Cover.JPG
ee01c0a7b2c1b8dd401a6b35a7b4f075 *INFO.txt
Attached Images
This post has an attachment which you could see if you were registered.
This post has an attachment which you could see if you were registered.
This post has an attachment which you could see if you were registered.
This post has an attachment which you could see if you were registered.
This post has an attachment which you could see if you were registered.
Attached Files
This post has an attachment which you could see if you were registered.
Reply With Quote
The Following 9 Members Thank TheDoorsLegend For This Torrent
Reply

Tags
2012-08-03, black, chicago, il, sabbath

Thread Tools
Display Modes

Posting Rules
You may not post new threads
You may not post replies
You may not post attachments
You may not edit your posts

BB code is On
Smilies are On
[IMG] code is On
HTML code is Off

Forum Jump

Similar Threads
Thread Thread Starter Forum Replies Last Post
UK DVD trader abramlord Non-Bit Torrent Trading 5 05.22.13 12:51 AM
my trade list auger Trade Lists 4 04.12.13 01:29 AM
My bootleg list (asian bands a priority, but I like ALMOST everything) StarslayerJo Trade Lists 1 10.19.12 10:35 PM
Black Sabbath - Columbus, OH July 3, 1995 jbarrowsrn Audio Bit Torrents 0 10.17.12 12:14 PM
DVD TRADE (jazz-soul-funk-rock) artyty Trade Lists 1 10.21.10 08:35 PM



6.jpg


Powered by vBulletin® Version 3.8.5
Copyright ©2000 - 2017, Jelsoft Enterprises Ltd.

WEB HOSTING: Hosting 4 Less

vB Forum Feeds by CinVin

Copyright © 2004-2017 JamToThis.com

vBulletin Skin developed by: vBStyles.com