JamToThis  
iTrader

Is your sharing ratio bad? Donate to our server costs and get upload credit!

Go Back   JamToThis > Bit Torrent Downloads > Video Bit Torrents

Reply
 
Thread Tools Display Modes
  (#1) Old
juzzi juzzi is offline
Trader Supreme


Join Date: 11.13.06
User ID: 14004
Posts: 559

Trader Rating: 28

Rate This Trader!



UL: 0.99 TB
DL: 0.98 TB
Ratio: 1.01
Seed Points: 3,530.40

Sharing Ratio
Policy


Torrent Thank You's: 4,191
Thanked Posts: 306

Video - Audience kiss - Helsinki Finland 2017-05-04 FULL SHOW TWO VERSIONS - 05.10.17, 11:31 AM

Artist:
kiss

Show or Bootleg Title:
Helsinki Finland 2017-05-04 FULL SHOW TWO VERSIONS

Show Venue:
Hartwall Arena

Source:
DVD - Audience

Video Quality/Production Info:
Video: A Audio : A

Audio/Video Specs:
General
Complete name : C:\Users\Juzzi\Desktop\Kiss Finland 2017 2 dvd versions\Left side dvd\VIDEO_TS\VTS_01_1.VOB
Format : MPEG-PS
File size : 1 000 MiB
Duration : 22mn 8s
Overall bit rate mode : Variable
Overall bit rate : 6 315 Kbps

Video
ID : 224 (0xE0)
Format : MPEG Video
Format version : Version 2
Format profile : Main@Main
Format settings, BVOP : Yes
Format settings, Matrix : Default
Format settings, GOP : M=3, N=12
Format settings, picture struc : Frame
Duration : 22mn 8s
Bit rate mode : Variable
Bit rate : 5 998 Kbps
Maximum bit rate : 9 500 Kbps
Width : 720 pixels
Height : 576 pixels
Display aspect ratio : 4:3
Frame rate : 25.000 fps
Standard : PAL
Color space : YUV
Chroma subsampling : 4:2:0
Bit depth : 8 bits
Scan type : Interlaced
Scan order : Bottom Field First
Compression mode : Lossy
Bits/(Pixel*Frame) : 0.578
Time code of first frame : 00:00:00:00
Time code source : Group of pictures header
GOP, Open/Closed : Open
GOP, Open/Closed of first fram : Closed
Stream size : 950 MiB (95%)

Audio
ID : 189 (0xBD)-128 (0x80)
Format : AC-3
Format/Info : Audio Coding 3
Mode extension : CM (complete main)
Format settings, Endianness : Big
Muxing mode : DVD-Video
Duration : 22mn 8s
Bit rate mode : Constant
Bit rate : 192 Kbps
Channel(s) : 2 channels
Channel positions : Front: L R
Sampling rate : 48.0 KHz
Frame rate : 31.250 fps (1536 spf)
Compression mode : Lossy
Stream size : 30.4 MiB (3%)

Menu

General
Complete name : C:\Users\Juzzi\Desktop\Kiss Finland 2017 2 dvd versions\Right side dvd\VIDEO_TS\VTS_01_2.VOB
Format : MPEG-PS
File size : 1 000 MiB
Duration : 22mn 10s
Overall bit rate mode : Variable
Overall bit rate : 6 307 Kbps

Video
ID : 224 (0xE0)
Format : MPEG Video
Format version : Version 2
Format profile : Main@Main
Format settings, BVOP : Yes
Format settings, Matrix : Default
Format settings, GOP : M=3, N=12
Format settings, picture struc : Frame
Duration : 22mn 9s
Bit rate mode : Variable
Bit rate : 5 990 Kbps
Maximum bit rate : 9 500 Kbps
Width : 720 pixels
Height : 576 pixels
Display aspect ratio : 4:3
Frame rate : 25.000 fps
Standard : PAL
Color space : YUV
Chroma subsampling : 4:2:0
Bit depth : 8 bits
Scan type : Interlaced
Scan order : Bottom Field First
Compression mode : Lossy
Bits/(Pixel*Frame) : 0.578
Time code of first frame : 00:22:09:23
Time code source : Group of pictures header
Stream size : 949 MiB (95%)

Audio
ID : 189 (0xBD)-128 (0x80)
Format : AC-3
Format/Info : Audio Coding 3
Mode extension : CM (complete main)
Format settings, Endianness : Big
Muxing mode : DVD-Video
Duration : 22mn 10s
Bit rate mode : Constant
Bit rate : 192 Kbps
Channel(s) : 2 channels
Channel positions : Front: L R
Sampling rate : 48.0 KHz
Frame rate : 31.250 fps (1536 spf)
Compression mode : Lossy
Delay relative to video : -592ms
Stream size : 30.4 MiB (3%)

Menu

Format:
PAL

Set List/Chapters:
Kiss Helsinki Finland Hartwall arena 2017-04-05

This is 2 dvd disc version of this show



Disc 1 : Left side
Deuce
Shout It Out Loud
Lick It Up
I Love It Loud
Love Gun
Firehouse
Shock Me
Guitar Solo
Flaming Youth
Bass Solo
War Machine
Crazy Crazy Nights
Cold Gin
Say Yeah
Let Me Go, Rock 'N' Roll
Psycho Circus
Black Diamond
Rock and Roll All Nite
Detroit Rock City
I Was Made for Lovin' You

Disc 2 : Right side (same setlist)

Checksums or Fingerprints:
# MD5 checksums generated by MD5summer (http://www.md5summer.org)
# Generated 10.5.2017 21:26:48

65003c40c78bc3585b88a3eee6d0c56e *Left side dvd/SPREPARE.SPSS
8b1ae60f976672bf8c8258a473f4a91a *Left side dvd/VIDEO_TS/VIDEO_TS.BUP
8b1ae60f976672bf8c8258a473f4a91a *Left side dvd/VIDEO_TS/VIDEO_TS.IFO
bee64b8b701857ffe30826b90473217e *Left side dvd/VIDEO_TS/VIDEO_TS.VOB
960455948e70b4e1bc21467d8ef4492f *Left side dvd/VIDEO_TS/VTS_01_0.BUP
960455948e70b4e1bc21467d8ef4492f *Left side dvd/VIDEO_TS/VTS_01_0.IFO
4e56896e856333d0be32f73455204bd1 *Left side dvd/VIDEO_TS/VTS_01_0.VOB
ca696975c78efce0c99b66bde487a7cb *Left side dvd/VIDEO_TS/VTS_01_1.VOB
1c93530e490fbfefcf1fa620f006ed9a *Left side dvd/VIDEO_TS/VTS_01_2.VOB
940bafd14d595af565d24538e9b71ad2 *Left side dvd/VIDEO_TS/VTS_01_3.VOB
685f841453a4dbc965abf281f3db1192 *Left side dvd/VIDEO_TS/VTS_01_4.VOB
a714aa90047b33c844f408546fcce744 *Left side dvd/VIDEO_TS/VTS_01_5.VOB


# MD5 checksums generated by MD5summer (http://www.md5summer.org)
# Generated 10.5.2017 21:29:51

72e966d3dc4d52313b7286babb86311d *SPREPARE.SPSS
8b1ae60f976672bf8c8258a473f4a91a *VIDEO_TS/VIDEO_TS.BUP
8b1ae60f976672bf8c8258a473f4a91a *VIDEO_TS/VIDEO_TS.IFO
bee64b8b701857ffe30826b90473217e *VIDEO_TS/VIDEO_TS.VOB
0c9c9949ad96bbb7d0eaebff6b14fa4c *VIDEO_TS/VTS_01_0.BUP
0c9c9949ad96bbb7d0eaebff6b14fa4c *VIDEO_TS/VTS_01_0.IFO
a7bc5c4af800b55ed2422b677c0e15b5 *VIDEO_TS/VTS_01_0.VOB
e6d92bebde70178244c358043f91b6aa *VIDEO_TS/VTS_01_1.VOB
c041fe0c34134b79fd999aaf8dfbde48 *VIDEO_TS/VTS_01_2.VOB
48cbefda5c448089f0cda16be7c9c6af *VIDEO_TS/VTS_01_3.VOB
f4563ceda4070e71f51efcf03fc6303a *VIDEO_TS/VTS_01_4.VOB
555e691ee1c32f5a683f00539e9b4ca9 *VIDEO_TS/VTS_01_5.VOB
Attached Images
This post has an attachment which you could see if you were registered.
This post has an attachment which you could see if you were registered.
This post has an attachment which you could see if you were registered.
This post has an attachment which you could see if you were registered.
This post has an attachment which you could see if you were registered.
Attached Files
This post has an attachment which you could see if you were registered.
Reply With Quote
The Following 77 Members Thank juzzi For This Torrent
670739, abrigo, acepepe, alter sack, alwaysKISS, badenser, bedebao, bigfish2, BJuploader, brick, bruins81, carrcriss, chevytruck, Cliff1986, costarock, cptncrash76, daiwakissed, dallascfan, decarbo, douglastryper, ehykawo, evildedd, falikiss, fandr78, freegersun666, fv45pfap, gava, ga_ki2, ginfire, gorgoroth666, gregman05, Hammer-Fall, hotlicks, Jcv5, jessihart, jmellison, journeyarrival1, Jukkis, junkmale, KARLJOHAN, Kissfanhousden, Kisstory, koopee27, Larre, leahcheer, livemichael, m51v50, mackiss, masa22, mccoolx, memoramone, Metallican, mies, motleymexico, MSOUZA1970, Muroh, ozzmosis, Philmac, pumpkin, raraland, REINALDORR45, Robotech, rockclube, rsauye, samyppeji, sbnitro, Stacy_DeVille, super-igoryok, TheDoorsLegend, tigris2011, Tinmanlee, Trebo, urfold, VikingJam, waltermitty111, zal
  (#2) Old
TheDoorsLegend TheDoorsLegend is online now
Trader Supreme
 
TheDoorsLegend's Avatar


Join Date: 11.17.12
User ID: 63129
Posts: 583
Location: Mexico

Trader Rating: 12

Rate This Trader!



UL: 328.73 GB
DL: 224.99 GB
Ratio: 1.46
Seed Points: 3,099.40

Sharing Ratio
Policy


Torrent Thank You's: 2,128
Thanked Posts: 380

05.10.17, 11:42 AM

Excellent thank you so much, does it comes from youtube or they are original file sources?
Reply With Quote
  (#3) Old
urfold urfold is offline
We Came To Rock
 
urfold's Avatar


Join Date: 09.03.09
User ID: 40325
Posts: 4,422
Location: Pandemonium

Trader Rating: 278

Rate This Trader!



UL: 12.64 TB
DL: 7.83 TB
Ratio: 1.61
Seed Points: 817,154.80

Sharing Ratio
Policy


Torrent Thank You's: 14,315
Thanked Posts: 2,174

05.12.17, 11:27 AM

Thank you very much !




************************

Great New Lossless Torrent Bootleg Site
http://liveshownation.com/index.php
Reply With Quote
  (#4) Old
mackiss mackiss is offline
Trader


Join Date: 11.23.09
User ID: 41977
Posts: 129

Trader Rating: 0

Rate This Trader!



UL: 31.93 GB
DL: 59.43 GB
Ratio: 0.54
Seed Points: 608.20

Sharing Ratio
Policy


Torrent Thank You's: 0
Thanked Posts: 79

05.23.17, 03:14 PM

thanks
Reply With Quote
  (#5) Old
gorgoroth666 gorgoroth666 is offline
Trader


Join Date: 11.24.12
User ID: 63228
Posts: 100

Trader Rating: 0

Rate This Trader!



UL: 0.00 kB
DL: 82.36 GB
Ratio: 0.00
Seed Points: 6.20

Sharing Ratio
Policy


Torrent Thank You's: 0
Thanked Posts: 81

06.01.17, 12:30 PM

very thank you
Reply With Quote
  (#6) Old
alter sack alter sack is offline
Trader


Join Date: 06.24.06
User ID: 11508
Posts: 49

Trader Rating: 0

Rate This Trader!



UL: 253.12 GB
DL: 276.54 GB
Ratio: 0.92
Seed Points: 1,103.40

Sharing Ratio
Policy


Torrent Thank You's: 0
Thanked Posts: 37

06.05.17, 02:34 PM

Reply With Quote
  (#7) Old
carrcriss carrcriss is offline
Rookie


Join Date: 09.18.15
User ID: 70952
Posts: 22

Trader Rating: 0

Rate This Trader!



UL: 4.58 GB
DL: 28.51 GB
Ratio: 0.16
Seed Points: 430.40

Sharing Ratio
Policy


Torrent Thank You's: 7
Thanked Posts: 20

08.30.17, 03:29 PM

Quote:
Originally Posted by juzzi View Post
Artist:
kiss

Show or Bootleg Title:
Helsinki Finland 2017-05-04 FULL SHOW TWO VERSIONS

Show Venue:
Hartwall Arena

Source:
DVD - Audience

Video Quality/Production Info:
Video: A Audio : A

Audio/Video Specs:
General
Complete name : C:\Users\Juzzi\Desktop\Kiss Finland 2017 2 dvd versions\Left side dvd\VIDEO_TS\VTS_01_1.VOB
Format : MPEG-PS
File size : 1 000 MiB
Duration : 22mn 8s
Overall bit rate mode : Variable
Overall bit rate : 6 315 Kbps

Video
ID : 224 (0xE0)
Format : MPEG Video
Format version : Version 2
Format profile : Main@Main
Format settings, BVOP : Yes
Format settings, Matrix : Default
Format settings, GOP : M=3, N=12
Format settings, picture struc : Frame
Duration : 22mn 8s
Bit rate mode : Variable
Bit rate : 5 998 Kbps
Maximum bit rate : 9 500 Kbps
Width : 720 pixels
Height : 576 pixels
Display aspect ratio : 4:3
Frame rate : 25.000 fps
Standard : PAL
Color space : YUV
Chroma subsampling : 4:2:0
Bit depth : 8 bits
Scan type : Interlaced
Scan order : Bottom Field First
Compression mode : Lossy
Bits/(Pixel*Frame) : 0.578
Time code of first frame : 00:00:00:00
Time code source : Group of pictures header
GOP, Open/Closed : Open
GOP, Open/Closed of first fram : Closed
Stream size : 950 MiB (95%)

Audio
ID : 189 (0xBD)-128 (0x80)
Format : AC-3
Format/Info : Audio Coding 3
Mode extension : CM (complete main)
Format settings, Endianness : Big
Muxing mode : DVD-Video
Duration : 22mn 8s
Bit rate mode : Constant
Bit rate : 192 Kbps
Channel(s) : 2 channels
Channel positions : Front: L R
Sampling rate : 48.0 KHz
Frame rate : 31.250 fps (1536 spf)
Compression mode : Lossy
Stream size : 30.4 MiB (3%)

Menu

General
Complete name : C:\Users\Juzzi\Desktop\Kiss Finland 2017 2 dvd versions\Right side dvd\VIDEO_TS\VTS_01_2.VOB
Format : MPEG-PS
File size : 1 000 MiB
Duration : 22mn 10s
Overall bit rate mode : Variable
Overall bit rate : 6 307 Kbps

Video
ID : 224 (0xE0)
Format : MPEG Video
Format version : Version 2
Format profile : Main@Main
Format settings, BVOP : Yes
Format settings, Matrix : Default
Format settings, GOP : M=3, N=12
Format settings, picture struc : Frame
Duration : 22mn 9s
Bit rate mode : Variable
Bit rate : 5 990 Kbps
Maximum bit rate : 9 500 Kbps
Width : 720 pixels
Height : 576 pixels
Display aspect ratio : 4:3
Frame rate : 25.000 fps
Standard : PAL
Color space : YUV
Chroma subsampling : 4:2:0
Bit depth : 8 bits
Scan type : Interlaced
Scan order : Bottom Field First
Compression mode : Lossy
Bits/(Pixel*Frame) : 0.578
Time code of first frame : 00:22:09:23
Time code source : Group of pictures header
Stream size : 949 MiB (95%)

Audio
ID : 189 (0xBD)-128 (0x80)
Format : AC-3
Format/Info : Audio Coding 3
Mode extension : CM (complete main)
Format settings, Endianness : Big
Muxing mode : DVD-Video
Duration : 22mn 10s
Bit rate mode : Constant
Bit rate : 192 Kbps
Channel(s) : 2 channels
Channel positions : Front: L R
Sampling rate : 48.0 KHz
Frame rate : 31.250 fps (1536 spf)
Compression mode : Lossy
Delay relative to video : -592ms
Stream size : 30.4 MiB (3%)

Menu

Format:
PAL

Set List/Chapters:
Kiss Helsinki Finland Hartwall arena 2017-04-05

This is 2 dvd disc version of this show



Disc 1 : Left side
Deuce
Shout It Out Loud
Lick It Up
I Love It Loud
Love Gun
Firehouse
Shock Me
Guitar Solo
Flaming Youth
Bass Solo
War Machine
Crazy Crazy Nights
Cold Gin
Say Yeah
Let Me Go, Rock 'N' Roll
Psycho Circus
Black Diamond
Rock and Roll All Nite
Detroit Rock City
I Was Made for Lovin' You

Disc 2 : Right side (same setlist)

Checksums or Fingerprints:
# MD5 checksums generated by MD5summer (http://www.md5summer.org)
# Generated 10.5.2017 21:26:48

65003c40c78bc3585b88a3eee6d0c56e *Left side dvd/SPREPARE.SPSS
8b1ae60f976672bf8c8258a473f4a91a *Left side dvd/VIDEO_TS/VIDEO_TS.BUP
8b1ae60f976672bf8c8258a473f4a91a *Left side dvd/VIDEO_TS/VIDEO_TS.IFO
bee64b8b701857ffe30826b90473217e *Left side dvd/VIDEO_TS/VIDEO_TS.VOB
960455948e70b4e1bc21467d8ef4492f *Left side dvd/VIDEO_TS/VTS_01_0.BUP
960455948e70b4e1bc21467d8ef4492f *Left side dvd/VIDEO_TS/VTS_01_0.IFO
4e56896e856333d0be32f73455204bd1 *Left side dvd/VIDEO_TS/VTS_01_0.VOB
ca696975c78efce0c99b66bde487a7cb *Left side dvd/VIDEO_TS/VTS_01_1.VOB
1c93530e490fbfefcf1fa620f006ed9a *Left side dvd/VIDEO_TS/VTS_01_2.VOB
940bafd14d595af565d24538e9b71ad2 *Left side dvd/VIDEO_TS/VTS_01_3.VOB
685f841453a4dbc965abf281f3db1192 *Left side dvd/VIDEO_TS/VTS_01_4.VOB
a714aa90047b33c844f408546fcce744 *Left side dvd/VIDEO_TS/VTS_01_5.VOB


# MD5 checksums generated by MD5summer (http://www.md5summer.org)
# Generated 10.5.2017 21:29:51

72e966d3dc4d52313b7286babb86311d *SPREPARE.SPSS
8b1ae60f976672bf8c8258a473f4a91a *VIDEO_TS/VIDEO_TS.BUP
8b1ae60f976672bf8c8258a473f4a91a *VIDEO_TS/VIDEO_TS.IFO
bee64b8b701857ffe30826b90473217e *VIDEO_TS/VIDEO_TS.VOB
0c9c9949ad96bbb7d0eaebff6b14fa4c *VIDEO_TS/VTS_01_0.BUP
0c9c9949ad96bbb7d0eaebff6b14fa4c *VIDEO_TS/VTS_01_0.IFO
a7bc5c4af800b55ed2422b677c0e15b5 *VIDEO_TS/VTS_01_0.VOB
e6d92bebde70178244c358043f91b6aa *VIDEO_TS/VTS_01_1.VOB
c041fe0c34134b79fd999aaf8dfbde48 *VIDEO_TS/VTS_01_2.VOB
48cbefda5c448089f0cda16be7c9c6af *VIDEO_TS/VTS_01_3.VOB
f4563ceda4070e71f51efcf03fc6303a *VIDEO_TS/VTS_01_4.VOB
555e691ee1c32f5a683f00539e9b4ca9 *VIDEO_TS/VTS_01_5.VOB
Reply With Quote
  (#8) Old
Cliff1986 Cliff1986 is offline
Trader God
 
Cliff1986's Avatar


Join Date: 10.05.16
User ID: 73401
Posts: 1,007

Trader Rating: 8

Rate This Trader!



UL: 1.69 TB
DL: 1.01 TB
Ratio: 1.68
Seed Points: 24,277.60

Sharing Ratio
Policy


Torrent Thank You's: 1,562
Thanked Posts: 810

08.31.17, 07:43 AM

Thank You for this version



Visit my new trade site

http://revengetradedvd.webcindario.com/
Reply With Quote
  (#9) Old
BJuploader BJuploader is offline
Trader


Join Date: 04.26.16
User ID: 72124
Posts: 126

Trader Rating: 3

Rate This Trader!



UL: 142.46 GB
DL: 275.22 GB
Ratio: 0.52
Seed Points: 233.40

Sharing Ratio
Policy


Torrent Thank You's: 851
Thanked Posts: 87

Talking thanks - 09.30.17, 09:02 AM

Reply With Quote
Reply

Tags
2017-05-04, finland, full, helsinki, kiss, show, versions

Thread Tools
Display Modes

Posting Rules
You may not post new threads
You may not post replies
You may not post attachments
You may not edit your posts

BB code is On
Smilies are On
[IMG] code is On
HTML code is Off

Forum Jump

Similar Threads
Thread Thread Starter Forum Replies Last Post
HI there Always Looking to Trade diamondmedia1 Trade Lists 40 09.22.10 08:58 AM
Classic Heavy Rock & Metal + Kiss DVD's for Trade Bulletproof Music Trade Lists 10 12.22.08 05:52 AM
KISS - The Elder Sessions (1981) bang on a can Requests 6 07.11.08 11:20 AM
My Trade List stuglue Trade Lists 4 04.17.08 10:45 AM



8.jpg


Powered by vBulletin® Version 3.8.5
Copyright ©2000 - 2018, Jelsoft Enterprises Ltd.

WEB HOSTING: Hosting 4 Less

vB Forum Feeds by CinVin

Copyright © 2004-2018 JamToThis.com

vBulletin Skin developed by: vBStyles.com