JamToThis  
iTrader

Is your sharing ratio bad? Donate to our server costs and get upload credit!

Go Back   JamToThis > Bit Torrent Downloads > Video Bit Torrents

Reply
 
Thread Tools Display Modes
  (#1) Old
callofthewild callofthewild is offline
Trader
 
callofthewild's Avatar


Join Date: 12.22.08
User ID: 33146
Posts: 87

Trader Rating: 1

Rate This Trader!



UL: 33.17 GB
DL: 35.02 GB
Ratio: 0.95
Seed Points: 4,073.60

Sharing Ratio
Policy


Torrent Thank You's: 87
Thanked Posts: 56

Video - Audience Black Sabbath - Karlshamn - 1995-06-16 - Tolvis' 1st gen VHS - 04.02.17, 03:41 PM

Artist:
Black Sabbath

Show or Bootleg Title:
Karlshamn - 1995-06-16 - Tolvis' 1st gen VHS

Show Venue:
Bellevueparken, Sweden

Source:
DVD - Audience

Video Quality/Production Info:
Video: A, Audio: A

Audio/Video Specs:
PAL DVD9

MediaInfo specs for VTS_01_2.VOB:

General
Complete name : VTS_01_2.VOB
Format : MPEG-PS
File size : 1 024 MiB
Duration : 14mn 45s
Overall bit rate : 9 698 Kbps

Video
ID : 224 (0xE0)
Format : MPEG Video
Format version : Version 2
Format profile : Main@Main
Format settings, BVOP : Yes
Format settings, Matrix : Custom
Format settings, GOP : M=3, N=13
Format settings, picture structure : Frame
Duration : 14mn 45s
Bit rate : 8 000 Kbps
Width : 720 pixels
Height : 576 pixels
Display aspect ratio : 4:3
Frame rate : 25.000 fps
Standard : PAL
Color space : YUV
Chroma subsampling : 4:2:0
Bit depth : 8 bits
Scan type : Interlaced
Scan order : Top Field First
Compression mode : Lossy
Bits/(Pixel*Frame) : 0.772
Time code of first frame : 00:14:46:04
Time code source : Group of pictures header
GOP, Open/Closed : Closed
Stream size : 841 MiB (82%)
Color primaries : BT.601 PAL
Transfer characteristics : BT.470 System B, BT.470 System G
Matrix coefficients : BT.601

Audio
ID : 189 (0xBD)-160 (0xA0)
Format : PCM
Format settings, Endianness : Big
Format settings, Sign : Signed
Muxing mode : DVD-Video
Duration : 14mn 45s
Bit rate mode : Constant
Bit rate : 1 536 Kbps
Channel(s) : 2 channels
Sampling rate : 48.0 KHz
Bit depth : 16 bits
Delay relative to video : -767ms
Stream size : 162 MiB (16%)

Format:
PAL

Set List/Chapters:
"setlist:
Children of the grave (cuts in)
Neon knights
The shining
The wizard
War pigs
Headless cross
Rusty angels
When death calls
I wonīt cry for you
The mob rules
Black sabbath
Paranoid
Iron man (cuts in)
Sabbath bloody sabbath

BONUS: Paranoid, live at Esbjerg Rock Festival 1995-06-04"

Checksums or Fingerprints:
; wholefile md5 checksum file generated by Trader's Little Helper
; generated on March 2, 2013, at 10:46:11

62c56ba2c92b2238ad448dfe9a40d89b *VIDEO_TS\VIDEO_TS.BUP
62c56ba2c92b2238ad448dfe9a40d89b *VIDEO_TS\VIDEO_TS.IFO
6225b8d917a9fe4317c701a86fde9129 *VIDEO_TS\VIDEO_TS.VOB
3717f22ce344d99977ae6b37ccf3cab8 *VIDEO_TS\VTS_01_0.BUP
3717f22ce344d99977ae6b37ccf3cab8 *VIDEO_TS\VTS_01_0.IFO
eb8364ed1d2fc1d8ed1a8876ebb332af *VIDEO_TS\VTS_01_0.VOB
5c1dbe078c7fc9180cab2a39e0fc0953 *VIDEO_TS\VTS_01_1.VOB
c24155646f106525afa54570803f824d *VIDEO_TS\VTS_01_2.VOB
0495762f7fc2b4eabee54959c1fd1f76 *VIDEO_TS\VTS_01_3.VOB
622c90e1098744d505f2dc8c76c94aaf *VIDEO_TS\VTS_01_4.VOB
490345ff5acfc2a94b7224957ab7a754 *VIDEO_TS\VTS_01_5.VOB
d9c275c5a21f7e13fd626ff6e9839845 *VIDEO_TS\VTS_01_6.VOB

Many thanks to original uploader Tolvis!

Here's hist original upload description:

Quote:
BLACK SABBATH

Karlshamn, SWE
Bellevueparken
1995-06-16

source: AUD PAL DualLayer DVD from 1st gen VHS, transferred february 2013 by tolvis
length: 76.00 + 3.30

I finally got to borrow a true 1st gen of my first Sabbathgig. Itīs not the best Iīve seen but it was to be the only time I got to see Cozy Powell live. I spent the afternoon chatting away with him at the hotel, a great guy.

The quality is very nice, the sound was pretty good to begin with (as you can see in the sampleclip) but I beefed up the bass a bit and removed the very shrillest frequencies to provide an overall better listening experience.

As a bonus, since many have asked me for it, I added the lossless clip of Esbjerg 1995. I honestly didnīt think too many people would be interested in this but the amount of emails and pmīs I got over it simply meant I had to add it. I hope you will all enjoy it.

setlist:
Children of the grave (cuts in)
Neon knights
The shining
The wizard
War pigs
Headless cross
Rusty angels
When death calls
I wonīt cry for you
The mob rules
Black sabbath
Paranoid
Iron man (cuts in)
Sabbath bloody sabbath

BONUS: Paranoid, live at Esbjerg Rock Festival 1995-06-04

TAGGART! Whereīs my froggy?
---
Daddy loves froggy. Froggy loves daddy?....ribbit.....ribbit....

ENJOY!
Attached Images
This post has an attachment which you could see if you were registered.
This post has an attachment which you could see if you were registered.
Attached Files
This post has an attachment which you could see if you were registered.
Reply With Quote
  (#2) Old
shuberka2016 shuberka2016 is offline
Trader Supreme


Join Date: 03.22.16
User ID: 71927
Posts: 357
Location: Uzbekistan

Trader Rating: 0

Rate This Trader!



UL: 1.54 TB
DL: 154.89 GB
Ratio: 10.20
Seed Points: 7,593.60

Sharing Ratio
Policy


Torrent Thank You's: 4,614
Thanked Posts: 52

04.03.17, 04:29 AM

Quote:
Originally Posted by callofthewild View Post
Artist:
Black Sabbath

Show or Bootleg Title:
Karlshamn - 1995-06-16 - Tolvis' 1st gen VHS

Show Venue:
Bellevueparken, Sweden

Source:
DVD - Audience

Video Quality/Production Info:
Video: A, Audio: A

Audio/Video Specs:
PAL DVD9

MediaInfo specs for VTS_01_2.VOB:

General
Complete name : VTS_01_2.VOB
Format : MPEG-PS
File size : 1 024 MiB
Duration : 14mn 45s
Overall bit rate : 9 698 Kbps

Video
ID : 224 (0xE0)
Format : MPEG Video
Format version : Version 2
Format profile : Main@Main
Format settings, BVOP : Yes
Format settings, Matrix : Custom
Format settings, GOP : M=3, N=13
Format settings, picture structure : Frame
Duration : 14mn 45s
Bit rate : 8 000 Kbps
Width : 720 pixels
Height : 576 pixels
Display aspect ratio : 4:3
Frame rate : 25.000 fps
Standard : PAL
Color space : YUV
Chroma subsampling : 4:2:0
Bit depth : 8 bits
Scan type : Interlaced
Scan order : Top Field First
Compression mode : Lossy
Bits/(Pixel*Frame) : 0.772
Time code of first frame : 00:14:46:04
Time code source : Group of pictures header
GOP, Open/Closed : Closed
Stream size : 841 MiB (82%)
Color primaries : BT.601 PAL
Transfer characteristics : BT.470 System B, BT.470 System G
Matrix coefficients : BT.601

Audio
ID : 189 (0xBD)-160 (0xA0)
Format : PCM
Format settings, Endianness : Big
Format settings, Sign : Signed
Muxing mode : DVD-Video
Duration : 14mn 45s
Bit rate mode : Constant
Bit rate : 1 536 Kbps
Channel(s) : 2 channels
Sampling rate : 48.0 KHz
Bit depth : 16 bits
Delay relative to video : -767ms
Stream size : 162 MiB (16%)

Format:
PAL

Set List/Chapters:
"setlist:
Children of the grave (cuts in)
Neon knights
The shining
The wizard
War pigs
Headless cross
Rusty angels
When death calls
I wonīt cry for you
The mob rules
Black sabbath
Paranoid
Iron man (cuts in)
Sabbath bloody sabbath

BONUS: Paranoid, live at Esbjerg Rock Festival 1995-06-04"

Checksums or Fingerprints:
; wholefile md5 checksum file generated by Trader's Little Helper
; generated on March 2, 2013, at 10:46:11

62c56ba2c92b2238ad448dfe9a40d89b *VIDEO_TS\VIDEO_TS.BUP
62c56ba2c92b2238ad448dfe9a40d89b *VIDEO_TS\VIDEO_TS.IFO
6225b8d917a9fe4317c701a86fde9129 *VIDEO_TS\VIDEO_TS.VOB
3717f22ce344d99977ae6b37ccf3cab8 *VIDEO_TS\VTS_01_0.BUP
3717f22ce344d99977ae6b37ccf3cab8 *VIDEO_TS\VTS_01_0.IFO
eb8364ed1d2fc1d8ed1a8876ebb332af *VIDEO_TS\VTS_01_0.VOB
5c1dbe078c7fc9180cab2a39e0fc0953 *VIDEO_TS\VTS_01_1.VOB
c24155646f106525afa54570803f824d *VIDEO_TS\VTS_01_2.VOB
0495762f7fc2b4eabee54959c1fd1f76 *VIDEO_TS\VTS_01_3.VOB
622c90e1098744d505f2dc8c76c94aaf *VIDEO_TS\VTS_01_4.VOB
490345ff5acfc2a94b7224957ab7a754 *VIDEO_TS\VTS_01_5.VOB
d9c275c5a21f7e13fd626ff6e9839845 *VIDEO_TS\VTS_01_6.VOB

Many thanks to original uploader Tolvis!

Here's hist original upload description:

Thank You.
Reply With Quote
  (#3) Old
studlymuffin studlymuffin is offline
Studly


Join Date: 05.27.06
User ID: 10772
Posts: 695

Trader Rating: 1

Rate This Trader!



UL: 1.90 TB
DL: 1.46 TB
Ratio: 1.30
Seed Points: 16,143.40

Sharing Ratio
Policy


Torrent Thank You's: 73
Thanked Posts: 356

04.03.17, 09:18 AM

Thank you
Reply With Quote
Reply

Tags
1995-06-16, 1st, black, gen, karlshamn, sabbath, tolvis, vhs

Thread Tools
Display Modes

Posting Rules
You may not post new threads
You may not post replies
You may not post attachments
You may not edit your posts

BB code is On
Smilies are On
[IMG] code is On
HTML code is Off

Forum Jump

Similar Threads
Thread Thread Starter Forum Replies Last Post
UK DVD trader abramlord Non-Bit Torrent Trading 5 05.22.13 01:51 AM
Black Sabbath - Columbus, OH July 3, 1995 jbarrowsrn Audio Bit Torrents 0 10.17.12 01:14 PM
DVD TRADE (jazz-soul-funk-rock) artyty Trade Lists 1 10.21.10 09:35 PM
My Metallica DVD List.....looking for traders..!! unforgiven Trade Lists 0 04.14.09 05:37 AM



5.jpg


Powered by vBulletin® Version 3.8.5
Copyright ©2000 - 2017, Jelsoft Enterprises Ltd.

WEB HOSTING: Hosting 4 Less

vB Forum Feeds by CinVin

Copyright © 2004-2017 JamToThis.com

vBulletin Skin developed by: vBStyles.com