JamToThis  
iTrader

Is your sharing ratio bad? Donate to our server costs and get upload credit!

Go Back   JamToThis > Bit Torrent Downloads > Video Bit Torrents

Reply
 
Thread Tools Display Modes
  (#1) Old
Rush01 Rush01 is offline
Trader
 
Rush01's Avatar


Join Date: 04.28.08
User ID: 28580
Posts: 230

Trader Rating: 6

Rate This Trader!



UL: 374.54 GB
DL: 308.87 GB
Ratio: 1.21
Seed Points: 15,513.60

Sharing Ratio
Policy


Torrent Thank You's: 732
Thanked Posts: 124

Avantasia - 2014-08-02 - WOA, Wacken, Germany - Blu-Ray - 04.02.17, 06:34 AM

Artist:
Avantasia

Show or Bootleg Title:
2014-08-02 - WOA, Wacken, Germany - Blu-Ray

Show Venue:
WOA, Wacken, Germany

Source:
HD - Pro Shot

Video Quality/Production Info:
A++ / The Clansmen

Audio/Video Specs:
General
ID : 1 (0x1)
Format/Info : Blu-ray Video
File size : 17.1 GiB
Duration : 1h 58mn
Overall bit rate mode : Variable
Overall bit rate : 20.7 Mbps
Maximum Overall bit rate : 27.6 Mbps

Video
ID : 4113 (0x1011)
Menu ID : 1 (0x1)
Format : MPEG Video
Format version : Version 2
Format profile : Main@High
Format settings, BVOP : Yes
Format settings, Matrix : Custom
Format settings, GOP : M=3, N=18
Codec ID : 2
Duration : 1h 58mn
Bit rate mode : Variable
Bit rate : 18.3 Mbps
Maximum bit rate : 23.0 Mbps
Width : 1 280 pixels
Height : 720 pixels
Display aspect ratio : 16:9
Frame rate : 50.000 fps
Standard : Component
Color space : YUV
Chroma subsampling : 4:2:0
Bit depth : 8 bits
Scan type : Progressive
Compression mode : Lossy
Bits/(Pixel*Frame) : 0.398
Stream size : 15.2 GiB (89%)
Writing library : TMPGEnc Authoring Works 4 Version. 4.0.11.39
Color primaries : BT.709
Transfer characteristics : BT.709
Matrix coefficients : BT.709

Audio
ID : 4352 (0x1100)
Menu ID : 1 (0x1)
Format : PCM
Format settings, Endianness : Big
Format settings, Sign : Signed
Muxing mode : Blu-ray
Codec ID : 128
Duration : 1h 58mn
Bit rate mode : Constant
Bit rate : 1 536 Kbps
Channel(s) : 2 channels
Channel positions : Front: L R
Sampling rate : 48.0 KHz
Bit depth : 16 bits
Stream size : 1.27 GiB (7%)

Format:
NTSC

Set List/Chapters:
Spectres
Invoke The Machine
The Scarecrow
The Story Ain't Over
Prelude
Reach Out For The Light
Avantasia
What's Left Of Me
Dying For An Angel
Farewell
Shelter From The Rain
The Great Mystery
Twisted Mind
Promised Land
Lost In Space
Band Introduction
Sign Of The Cross

Filmer(s): 3Sat

Lineage: .TS > TMPEGEnc Authoring Works 4.0

Total running time: 118'

Authored by: Theclansmen
Chapters: Yes
Menus: Yes

Checksums or Fingerprints:
6448e3f059b38d104ad61d60c3792a7b *BDMV\BACKUP\CLIPINF\00000.clpi
1e7ab65c9c2e1ee82500cd89586fcf60 *BDMV\BACKUP\CLIPINF\00001.clpi
72d6a8909295089eb7037aa5e9255929 *BDMV\BACKUP\index.bdmv
8459061f6df7c3cff56ea9f2d14bbe92 *BDMV\BACKUP\MovieObject.bdmv
15e3e27fe4ba003f7cc7f20d9ba5a9f0 *BDMV\BACKUP\PLAYLIST\00000.mpls
87f93f48311f54ad717ef45debdc57bc *BDMV\BACKUP\PLAYLIST\00001.mpls
6448e3f059b38d104ad61d60c3792a7b *BDMV\CLIPINF\00000.clpi
1e7ab65c9c2e1ee82500cd89586fcf60 *BDMV\CLIPINF\00001.clpi
72d6a8909295089eb7037aa5e9255929 *BDMV\index.bdmv
8459061f6df7c3cff56ea9f2d14bbe92 *BDMV\MovieObject.bdmv
15e3e27fe4ba003f7cc7f20d9ba5a9f0 *BDMV\PLAYLIST\00000.mpls
87f93f48311f54ad717ef45debdc57bc *BDMV\PLAYLIST\00001.mpls
f26f66a6716300ba64bd9f91677c6eae *BDMV\STREAM\00000.m2ts
f996da08679dda7a915b72229e9c8b57 *BDMV\STREAM\00001.m2ts
Attached Images
This post has an attachment which you could see if you were registered.
This post has an attachment which you could see if you were registered.
This post has an attachment which you could see if you were registered.
This post has an attachment which you could see if you were registered.
This post has an attachment which you could see if you were registered.
Attached Files
This post has an attachment which you could see if you were registered.

Last edited by Rush01; 04.02.17 at 06:07 PM.
Reply With Quote
The Following 14 Members Thank Rush01 For This Torrent
  (#2) Old
Rush01 Rush01 is offline
Trader
 
Rush01's Avatar


Join Date: 04.28.08
User ID: 28580
Posts: 230

Trader Rating: 6

Rate This Trader!



UL: 374.54 GB
DL: 308.87 GB
Ratio: 1.21
Seed Points: 15,513.60

Sharing Ratio
Policy


Torrent Thank You's: 732
Thanked Posts: 124

04.04.17, 02:35 PM

Does anyone have a artwork from this Blu Ray?
Reply With Quote
  (#3) Old
Nono666 Nono666 is offline
Trader Supreme


Join Date: 02.16.11
User ID: 51785
Posts: 680

Trader Rating: 20

Rate This Trader!



UL: 1.37 TB
DL: 989.33 GB
Ratio: 1.42
Seed Points: 70,547.60

Sharing Ratio
Policy


Torrent Thank You's: 2,549
Thanked Posts: 250

04.04.17, 02:44 PM

An artwork I made long ago : http://www.filefactory.com/file/11wd...ken%202014.jpg
Reply With Quote
  (#4) Old
Rush01 Rush01 is offline
Trader
 
Rush01's Avatar


Join Date: 04.28.08
User ID: 28580
Posts: 230

Trader Rating: 6

Rate This Trader!



UL: 374.54 GB
DL: 308.87 GB
Ratio: 1.21
Seed Points: 15,513.60

Sharing Ratio
Policy


Torrent Thank You's: 732
Thanked Posts: 124

04.04.17, 05:08 PM

Thanks
Reply With Quote
Reply

Tags
2014-08-02, avantasia, blu-ray, germany, wacken, woa

Thread Tools
Display Modes

Posting Rules
You may not post new threads
You may not post replies
You may not post attachments
You may not edit your posts

BB code is On
Smilies are On
[IMG] code is On
HTML code is Off

Forum Jump

Similar Threads
Thread Thread Starter Forum Replies Last Post
Heavy/Power Bootleg Empire (dvd, bluray and audio) Hallowed Trade Lists 1 11.25.15 03:35 PM
Www.livedvdarchive.com Suff22886 Trade Lists 3 08.22.15 01:39 PM
My Heavy/Power Bootlegs trade list Hallowed Trade Lists 3 08.03.14 07:50 AM
DVD Trading Site Suff22886 Trade Lists 4 03.15.09 03:59 AM



2.jpg


Powered by vBulletin® Version 3.8.5
Copyright ©2000 - 2018, Jelsoft Enterprises Ltd.

WEB HOSTING: Hosting 4 Less

vB Forum Feeds by CinVin

Copyright © 2004-2018 JamToThis.com

vBulletin Skin developed by: vBStyles.com