JamToThis  
iTrader

Is your sharing ratio bad? Donate to our server costs and get upload credit!

Go Back   JamToThis > Bit Torrent Downloads > Video Bit Torrents

Reply
 
Thread Tools Display Modes
  (#1) Old
Nono666 Nono666 is offline
Trader Supreme


Join Date: 02.16.11
User ID: 51785
Posts: 679

Trader Rating: 20

Rate This Trader!



UL: 1.37 TB
DL: 989.33 GB
Ratio: 1.42
Seed Points: 70,547.60

Sharing Ratio
Policy


Torrent Thank You's: 2,538
Thanked Posts: 249

Powerwolf - Le Bikini, Toulouse, France, 2016-04-06 - 02.27.17, 12:16 PM

Artist:
Powerwolf

Show or Bootleg Title:
Le Bikini, Toulouse, France, 2016-04-06

Show Venue:
Le Bikini, Toulouse, France, 2016-04-06

Source:
HD - Pro Shot

Video Quality/Production Info:
A+

Audio/Video Specs:
General
ID : 0 (0x0)
Complete name : Powerwolf - 2016-04-06 - Le Bikini, Toulouse, France\BDMV\STREAM\00000.m2ts
Format : BDAV
Format/Info : Blu-ray Video
File size : 11.8 GiB
Duration : 1h 0mn
Overall bit rate mode : Variable
Overall bit rate : 28.0 Mbps
Maximum Overall bit rate : 48.0 Mbps

Video
ID : 4113 (0x1011)
Menu ID : 1 (0x1)
Format : MPEG Video
Format version : Version 2
Format profile : Main@High
Format settings, BVOP : Yes
Format settings, Matrix : Custom
Format settings, GOP : M=3, N=12
Codec ID : 2
Duration : 1h 0mn
Bit rate mode : Variable
Bit rate : 26.7 Mbps
Maximum bit rate : 40.0 Mbps
Width : 1 920 pixels
Height : 1 080 pixels
Display aspect ratio : 16:9
Frame rate : 25.000 fps
Color space : YUV
Chroma subsampling : 4:2:0
Bit depth : 8 bits
Scan type : Interlaced
Scan order : Top Field First
Compression mode : Lossy
Bits/(Pixel*Frame) : 0.514
Stream size : 11.2 GiB (95%)
Writing library : Created by NeMpeg2Enc (2017-02-08T22-52-28)

Audio
ID : 4352 (0x1100)
Menu ID : 1 (0x1)
Format : AC-3
Format/Info : Audio Coding 3
Mode extension : CM (complete main)
Codec ID : 129
Duration : 1h 0mn
Bit rate mode : Constant
Bit rate : 192 Kbps
Channel(s) : 2 channels
Channel positions : Front: L R
Sampling rate : 48.0 KHz
Bit depth : 16 bits
Compression mode : Lossy
Stream size : 82.9 MiB (1%)

Format:
HD

Set List/Chapters:
01. Blessed & Possessed
02. Coleus Sanctus
03. Amen & Attack
04. Sacred & Wild (*)
05. Army of the Night
06. Resurrection by Erection
07. Armata Strigoi
08. Dead Until Dark (*)
09. Let There Be Night
10 Werewolves of Armenia
11. Saturday Satan (*)
12. In the Name of God (Deus Vult) (*)
13. We Drink Your Blood
14. Lupus Dei
15. Sanctified With Dynamite
16. Kreuzfeuer
17. All We Need Is Blood (*)
(*) Not broadcast

Checksums or Fingerprints:
# MD5 checksums generated by MD5summer (http://www.md5summer.org)
# Generated 27/02/2017 15:23:32

9a553da73c122975ed279f3e4d2db11a *BDMV/BACKUP/CLIPINF/00000.clpi
fcd63cef360c41f978d2215fa2ddcc79 *BDMV/BACKUP/CLIPINF/00001.clpi
934a0833b31259693fcca304282307b6 *BDMV/BACKUP/CLIPINF/00002.clpi
ad5c308a5b17b65e6d1b959856c9fdf4 *BDMV/BACKUP/index.bdmv
7151491e0513deebdf002fc636e0122b *BDMV/BACKUP/MovieObject.bdmv
1b46f039b77145fb54da0ef5cdb7f010 *BDMV/BACKUP/PLAYLIST/00000.mpls
a74c6c59b536e12475350f94118ed228 *BDMV/BACKUP/PLAYLIST/00001.mpls
50cec52e230052af1d803e9a48089b6f *BDMV/BACKUP/PLAYLIST/00002.mpls
9a553da73c122975ed279f3e4d2db11a *BDMV/CLIPINF/00000.clpi
fcd63cef360c41f978d2215fa2ddcc79 *BDMV/CLIPINF/00001.clpi
934a0833b31259693fcca304282307b6 *BDMV/CLIPINF/00002.clpi
ad5c308a5b17b65e6d1b959856c9fdf4 *BDMV/index.bdmv
7151491e0513deebdf002fc636e0122b *BDMV/MovieObject.bdmv
1b46f039b77145fb54da0ef5cdb7f010 *BDMV/PLAYLIST/00000.mpls
a74c6c59b536e12475350f94118ed228 *BDMV/PLAYLIST/00001.mpls
50cec52e230052af1d803e9a48089b6f *BDMV/PLAYLIST/00002.mpls
fd4058dccc855ab17bc6b8fddcd62d9f *BDMV/STREAM/00000.m2ts
75c007ed4a393ab7997f453d3f429ea6 *BDMV/STREAM/00001.m2ts
8d69bc9cee9fa3d21fbc6727e8ce2d32 *BDMV/STREAM/00002.m2ts
12739a03e041302828bf322826beff49 *(0236-BR) Powerwolf - Toulouse 2016.jpg
88b2b702e331b5cde9105bf7a368ef2c *Powerwolf.txt

Powerwolf
2016-04-06
Le Bikini, Ramonville-Saint-Agne, Toulouse, France

Lineage :
Enôrme TV => Unknown (got it from trade) => BD25 (basic menu, no chapters)
Different recording from mine (PagArn / no ad cuts on this one it seems), which was previously shared as TS files.

Artwork enclosed.

I saw them live in Clermont-Ferrand a couple of days before this whow and they really kicked asses !! Support them, they deserve it !!

Enjoy and share freely !!

PagArn / Nono, February 2017
Attached Files
This post has an attachment which you could see if you were registered.

Last edited by Nono666; 02.27.17 at 12:42 PM.
Reply With Quote
The Following 15 Members Thank Nono666 For This Torrent
  (#2) Old
rodoarb1970 rodoarb1970 is offline
Trader


Join Date: 01.29.17
User ID: 74275
Posts: 31

Trader Rating: 0

Rate This Trader!



UL: 17.27 GB
DL: 70.72 GB
Ratio: 0.24
Seed Points: 545.80

Sharing Ratio
Policy


Torrent Thank You's: 0
Thanked Posts: 16

03.01.17, 07:47 AM

great band
Reply With Quote
  (#3) Old
Norbika1979 Norbika1979 is offline
Trader


Join Date: 07.25.14
User ID: 68924
Posts: 63

Trader Rating: 0

Rate This Trader!



UL: 695.87 MB
DL: 38.61 GB
Ratio: 0.02
Seed Points: 11.00

Sharing Ratio
Policy


Torrent Thank You's: 0
Thanked Posts: 34

03.23.17, 09:47 AM

thanx
Reply With Quote
Reply

Tags
2016-04-06, bikini, france, le, powerwolf, toulouse

Thread Tools
Display Modes

Posting Rules
You may not post new threads
You may not post replies
You may not post attachments
You may not edit your posts

BB code is On
Smilies are On
[IMG] code is On
HTML code is Off

Forum Jump

Similar Threads
Thread Thread Starter Forum Replies Last Post
Bootlegs-Trade.ru saler Trade Lists 38 06.22.17 07:14 PM
Heavy/Power Bootleg Empire (dvd, bluray and audio) Hallowed Trade Lists 1 11.25.15 02:35 PM
My Heavy/Power Bootlegs trade list Hallowed Trade Lists 3 08.03.14 06:50 AM



3.jpg


Powered by vBulletin® Version 3.8.5
Copyright ©2000 - 2018, Jelsoft Enterprises Ltd.

WEB HOSTING: Hosting 4 Less

vB Forum Feeds by CinVin

Copyright © 2004-2017 JamToThis.com

vBulletin Skin developed by: vBStyles.com