JamToThis  
iTrader

Is your sharing ratio bad? Donate to our server costs and get upload credit!

Go Back   JamToThis > Bit Torrent Downloads > Video Bit Torrents

Reply
 
Thread Tools Display Modes
  (#1) Old
juzzi juzzi is offline
Trader Supreme


Join Date: 11.13.06
User ID: 14004
Posts: 559

Trader Rating: 28

Rate This Trader!



UL: 0.99 TB
DL: 0.98 TB
Ratio: 1.01
Seed Points: 3,530.40

Sharing Ratio
Policy


Torrent Thank You's: 4,191
Thanked Posts: 306

Video - Audience Kiss - Las Vegas 2013 - Ace and Peter New York 2013 - 12.13.16, 10:04 PM

Artist:
Kiss

Show or Bootleg Title:
Las Vegas 2013 - Ace and Peter New York 2013

Show Venue:
various

Source:
DVD - Audience

Video Quality/Production Info:
variable

Audio/Video Specs:
General
Complete name : C:\Users\Juzzi\Desktop\kiss\VIDEO_TS\VTS_01_4.VOB
Format : MPEG-PS
File size : 335 MiB
Duration : 4mn 47s
Overall bit rate : 9 788 Kbps

Video
ID : 224 (0xE0)
Format : MPEG Video
Format version : Version 2
Format profile : Main@Main
Format settings, BVOP : Yes
Format settings, Matrix : Default
Format settings, GOP : M=3, N=15
Duration : 4mn 47s
Bit rate : 9 400 Kbps
Width : 720 pixels
Height : 576 pixels
Display aspect ratio : 4:3
Frame rate : 25.000 fps
Standard : PAL
Color space : YUV
Chroma subsampling : 4:2:0
Bit depth : 8 bits
Scan type : Progressive
Compression mode : Lossy
Bits/(Pixel*Frame) : 0.907
Time code of first frame : 00:43:51:13
Time code source : Group of pictures header
GOP, Open/Closed : Open
Stream size : 321 MiB (96%)

Audio
ID : 192 (0xC0)
Format : MPEG Audio
Format version : Version 1
Format profile : Layer 2
Duration : 4mn 47s
Bit rate mode : Constant
Bit rate : 224 Kbps
Channel(s) : 2 channels
Sampling rate : 48.0 KHz
Compression mode : Lossy
Delay relative to video : -192ms
Stream size : 7.67 MiB (2%)

Menu

Format:
PAL

Set List/Chapters:
wow!!! I just found this dvd from my collection,and i don`t even remember editing this dvd.. Maybe i was high or drunk when i do this
and yeah,it is in PAL format...Sorry..


Kiss - The Fundraiser Las Vegas 2013-12-05

KISS LIVE WITHOUT MAKE-UP


shout it out loud
Deuce
Lick it up
Dr.Love
Detroit rock city
Rock and roll all nite

Ace and Peter :
Eddie Trunk 30th Anniversary party
New York 2013-10-23

Got to choose
Parasite
Hooligan
Love her all i can
Rock and roll all nite
Soundcheck : Rock and roll all nite


I hope you enjoy this dvd...

HELLSTORM79 (JUZZI)

Checksums or Fingerprints:
# MD5 checksums generated by MD5summer (http://www.md5summer.org)
# Generated 14.12.2016 8:05:37

3ba179f22363719a330802170f467618 *VIDEO_TS/VIDEO_TS.BUP
3ba179f22363719a330802170f467618 *VIDEO_TS/VIDEO_TS.IFO
002ff5426e163b5c3943186e07e8e828 *VIDEO_TS/VIDEO_TS.VOB
ac93b87f5dfcc9f943d1a59b7ff4f283 *VIDEO_TS/VTS_01_0.BUP
ac93b87f5dfcc9f943d1a59b7ff4f283 *VIDEO_TS/VTS_01_0.IFO
7e9ae65dd8f74a3506f150840b2455c1 *VIDEO_TS/VTS_01_1.VOB
c452f1239044779110c183636ab4138b *VIDEO_TS/VTS_01_2.VOB
251911b7afe9a32a234d114c82379076 *VIDEO_TS/VTS_01_3.VOB
5686eb5b2b4c7d8d491258bec53727c7 *VIDEO_TS/VTS_01_4.VOB
Attached Images
This post has an attachment which you could see if you were registered.
This post has an attachment which you could see if you were registered.
This post has an attachment which you could see if you were registered.
This post has an attachment which you could see if you were registered.
This post has an attachment which you could see if you were registered.
Attached Files
This post has an attachment which you could see if you were registered.

Last edited by juzzi; 12.13.16 at 10:16 PM.
Reply With Quote
  (#2) Old
Metal Asylum Metal Asylum is offline
Trader God
 
Metal Asylum's Avatar


Join Date: 05.16.10
User ID: 45488
Posts: 1,216

Trader Rating: 0

Rate This Trader!



UL: 3.36 TB
DL: 1.99 TB
Ratio: 1.69
Seed Points: 242,123.60

Sharing Ratio
Policy


Torrent Thank You's: 0
Thanked Posts: 632

01.23.17, 05:35 PM

Mondo Thanks!!
Reply With Quote
Reply

Tags
2013, ace, kiss, las, peter, vegas, york

Thread Tools
Display Modes

Posting Rules
You may not post new threads
You may not post replies
You may not post attachments
You may not edit your posts

BB code is On
Smilies are On
[IMG] code is On
HTML code is Off

Forum Jump

Similar Threads
Thread Thread Starter Forum Replies Last Post
My DVD trade list Metromania Trade Lists 5 08.29.13 10:30 PM
UK DVD trader abramlord Non-Bit Torrent Trading 5 05.22.13 01:51 AM
My bootleg list (asian bands a priority, but I like ALMOST everything) StarslayerJo Trade Lists 1 10.19.12 11:35 PM
kiss ,motley crue traders wanted here are my lists thecrue General Trade Discussion 13 05.02.08 10:55 PM



7.jpg


Powered by vBulletin® Version 3.8.5
Copyright ©2000 - 2018, Jelsoft Enterprises Ltd.

WEB HOSTING: Hosting 4 Less

vB Forum Feeds by CinVin

Copyright © 2004-2018 JamToThis.com

vBulletin Skin developed by: vBStyles.com