JamToThis  
iTrader

Is your sharing ratio bad? Donate to our server costs and get upload credit!

Go Back   JamToThis > Bit Torrent Downloads > Video Bit Torrents

Reply
 
Thread Tools Display Modes
  (#1) Old
juzzi juzzi is offline
Trader Supreme


Join Date: 11.13.06
User ID: 14004
Posts: 547

Trader Rating: 27

Rate This Trader!



UL: 0.99 TB
DL: 964.12 GB
Ratio: 1.05
Seed Points: 3,405.20

Sharing Ratio
Policy


Torrent Thank You's: 4,056
Thanked Posts: 295

Video - Audience Kiss - Quebec 84 (Hellstorm79) - 12.11.16, 08:23 PM

Artist:
Kiss

Show or Bootleg Title:
Quebec 84 (Hellstorm79)

Show Venue:
Montreal Forum, Montreal, QC, Canada 1984-03-13

Source:
DVD - Audience

Video Quality/Production Info:
quality is ok.

Audio/Video Specs:
General
Complete name : C:\Users\Juzzi\Desktop\Kiss 1984 DVD\VIDEO_TS\VTS_01_1.VOB
Format : MPEG-PS
File size : 1 000 MiB
Duration : 22mn 8s
Overall bit rate mode : Variable
Overall bit rate : 6 315 Kbps

Video
ID : 224 (0xE0)
Format : MPEG Video
Format version : Version 2
Format profile : Main@Main
Format settings, BVOP : Yes
Format settings, Matrix : Default
Format settings, GOP : M=3, N=12
Format settings, picture struc : Frame
Duration : 22mn 8s
Bit rate mode : Variable
Bit rate : 5 998 Kbps
Maximum bit rate : 9 500 Kbps
Width : 720 pixels
Height : 576 pixels
Display aspect ratio : 4:3
Frame rate : 25.000 fps
Standard : PAL
Color space : YUV
Chroma subsampling : 4:2:0
Bit depth : 8 bits
Scan type : Interlaced
Scan order : Bottom Field First
Compression mode : Lossy
Bits/(Pixel*Frame) : 0.578
Time code of first frame : 00:00:00:00
Time code source : Group of pictures header
GOP, Open/Closed : Open
GOP, Open/Closed of first fram : Closed
Stream size : 950 MiB (95%)

Audio
ID : 189 (0xBD)-128 (0x80)
Format : AC-3
Format/Info : Audio Coding 3
Mode extension : CM (complete main)
Format settings, Endianness : Big
Muxing mode : DVD-Video
Duration : 22mn 8s
Bit rate mode : Constant
Bit rate : 192 Kbps
Channel(s) : 2 channels
Channel positions : Front: L R
Sampling rate : 48.0 KHz
Frame rate : 31.250 fps (1536 spf)
Compression mode : Lossy
Stream size : 30.4 MiB (3%)

Menu

Format:
PAL

Set List/Chapters:
Okey, i don`t know original filmer etc..but this is my version of this show,and this my first big editing/synching project about 5 years ago..

and why i combine montreal84 video with Nashville 84 audio ???

I tell you... i see in youtube video about 2-3 songs from this show which is made by like that ( video quebec and audio Nashville)

so i think that i want whole show like that,and that is reason why i made this dvd like that !!!

And sorry this is in PAL format...

But hey,if that harms you then don`t download my dvd`s..

Okey ???



So video is Montreal Forum, Montreal, QC, Canada 1984-03-13 and audio is Nashville Municipal Auditorium, Nashville, TN, USA 1984-01-11



Creatures of the Night
Detroit Rock City
Cold Gin
Fits Like a Glove
Firehouse
Gimme More
War Machine
I Love It Loud
I Still Love You
Young and Wasted
Love Gun
All Hell's Breakin' Loose
Black Diamond
Lick It Up
Rock and Roll All Nite




HELLSTORM79

Checksums or Fingerprints:
# MD5 checksums generated by MD5summer (http://www.md5summer.org)
# Generated 12.12.2016 7:19:49

97c8de13a04f48db11f8b247ccd25440 *VIDEO_TS/VIDEO_TS.BUP
97c8de13a04f48db11f8b247ccd25440 *VIDEO_TS/VIDEO_TS.IFO
bee64b8b701857ffe30826b90473217e *VIDEO_TS/VIDEO_TS.VOB
d3e338e5be1f66792fca16af0ca3d40c *VIDEO_TS/VTS_01_0.BUP
d3e338e5be1f66792fca16af0ca3d40c *VIDEO_TS/VTS_01_0.IFO
2f66568c1cd80cc0abb4b87b35705b3a *VIDEO_TS/VTS_01_0.VOB
01a025ddc4db05ab7a046721b5352e98 *VIDEO_TS/VTS_01_1.VOB
96611e56746aafa196b35d2f81c25d4b *VIDEO_TS/VTS_01_2.VOB
628c4e5f13a39127506f3daaf85ef793 *VIDEO_TS/VTS_01_3.VOB

read my description above before you complain about anything.
Attached Images
This post has an attachment which you could see if you were registered.
This post has an attachment which you could see if you were registered.
This post has an attachment which you could see if you were registered.
This post has an attachment which you could see if you were registered.
This post has an attachment which you could see if you were registered.
Attached Files
This post has an attachment which you could see if you were registered.
Reply With Quote
  (#2) Old
Heallvy62 Heallvy62 is offline
Trader Supreme
 
Heallvy62's Avatar


Join Date: 01.24.13
User ID: 64033
Posts: 351
Location: France (North)

Trader Rating: 4

Rate This Trader!



UL: 293.69 GB
DL: 371.17 GB
Ratio: 0.79
Seed Points: 17,728.80

Sharing Ratio
Policy


Torrent Thank You's: 1,425
Thanked Posts: 171

12.11.16, 11:05 PM

Thanks Juzzi for this one !
Nice job, great !!!!!

Last edited by Heallvy62; 12.14.16 at 12:01 AM.
Reply With Quote
  (#3) Old
urfold urfold is offline
We Came To Rock
 
urfold's Avatar


Join Date: 09.03.09
User ID: 40325
Posts: 4,405
Location: Pandemonium

Trader Rating: 278

Rate This Trader!



UL: 12.54 TB
DL: 7.78 TB
Ratio: 1.61
Seed Points: 784,449.40

Sharing Ratio
Policy


Torrent Thank You's: 14,295
Thanked Posts: 2,166

12.13.16, 06:33 AM

Is it a re-up of this one you uploaded some years ago ?
http://www.jamtothis.com/showthread.php?p=219423




************************

Great New Lossless Torrent Bootleg Site
http://liveshownation.com/index.php
Reply With Quote
Reply

Tags
84, hellstorm79, kiss, quebec

Thread Tools
Display Modes

Posting Rules
You may not post new threads
You may not post replies
You may not post attachments
You may not edit your posts

BB code is On
Smilies are On
[IMG] code is On
HTML code is Off

Forum Jump

Similar Threads
Thread Thread Starter Forum Replies Last Post
Trade!!!! Muttlange Non-Bit Torrent Trading 3 08.22.13 04:58 AM
UK DVD trader abramlord Non-Bit Torrent Trading 5 05.22.13 12:51 AM
Here Is Part 2 Of My List All KISS waynesdvds Trade Lists 1 03.27.09 01:35 PM
Classic Heavy Rock & Metal + Kiss DVD's for Trade Bulletproof Music Trade Lists 10 12.22.08 04:52 AM



1.jpg


Powered by vBulletin® Version 3.8.5
Copyright ©2000 - 2018, Jelsoft Enterprises Ltd.

WEB HOSTING: Hosting 4 Less

vB Forum Feeds by CinVin

Copyright © 2004-2017 JamToThis.com

vBulletin Skin developed by: vBStyles.com