JamToThis  
iTrader

Is your sharing ratio bad? Donate to our server costs and get upload credit!

Go Back   JamToThis > Bit Torrent Downloads > Video Bit Torrents

Reply
 
Thread Tools Display Modes
  (#1) Old
juzzi juzzi is offline
Trader Supreme


Join Date: 11.13.06
User ID: 14004
Posts: 559

Trader Rating: 28

Rate This Trader!



UL: 0.99 TB
DL: 0.98 TB
Ratio: 1.01
Seed Points: 3,530.40

Sharing Ratio
Policy


Torrent Thank You's: 4,191
Thanked Posts: 306

Video - Audience Kiss - Sweden 1996-12-06 - 11.30.16, 08:22 PM

Artist:
Kiss

Show or Bootleg Title:
Sweden 1996-12-06

Show Venue:
Stockholm,Sweden

Source:
DVD - Audience

Video Quality/Production Info:
Video : A-, Audio: A

Audio/Video Specs:
General
Complete name : C:\Users\Juzzi\Desktop\Kiss - Stockholm 1996 DVD\VIDEO_TS\VTS_02_1.VOB
Format : MPEG-PS
File size : 918 MiB
Duration : 26mn 4s
Overall bit rate mode : Variable
Overall bit rate : 4 921 Kbps

Video
ID : 224 (0xE0)
Format : MPEG Video
Format version : Version 2
Format profile : Main@Main
Format settings, BVOP : Yes
Format settings, Matrix : Custom
Format settings, GOP : M=3, N=12
Format settings, picture struc : Frame
Duration : 26mn 4s
Bit rate mode : Variable
Bit rate : 4 567 Kbps
Maximum bit rate : 9 396 Kbps
Width : 720 pixels
Height : 576 pixels
Display aspect ratio : 4:3
Frame rate : 25.000 fps
Standard : PAL
Color space : YUV
Chroma subsampling : 4:2:0
Bit depth : 8 bits
Scan type : Interlaced
Scan order : Top Field First
Compression mode : Lossy
Bits/(Pixel*Frame) : 0.441
Time code of first frame : 00:00:00:00
Time code source : Group of pictures header
GOP, Open/Closed : Open
GOP, Open/Closed of first fram : Closed
Stream size : 852 MiB (93%)

Audio
ID : 189 (0xBD)-128 (0x80)
Format : AC-3
Format/Info : Audio Coding 3
Mode extension : CM (complete main)
Format settings, Endianness : Big
Muxing mode : DVD-Video
Duration : 26mn 4s
Bit rate mode : Constant
Bit rate : 256 Kbps
Channel(s) : 2 channels
Channel positions : Front: L R
Sampling rate : 48.0 KHz
Frame rate : 31.250 fps (1536 spf)
Compression mode : Lossy
Stream size : 47.7 MiB (5%)

Menu

Format:
PAL

Set List/Chapters:
This is my vhs transfer to dvd..
I hope you like it..
Hellstorm 79

Deuce
King of the night time world
Do you love me ?
Calling dr.love
Cold gin
Watchin`you
Firehouse
I stole your love
Shock me
Guitar solo
Let me go Rock n roll
Shout it out loud
I was made for lovin`you
C`mon and love me
Gene solo
God of thunder
Peter solo
God of thunder reprise
New York groove
Love gun
Black Diamond
Detroit rock city
Beth
Rock and roll all nite



HELLSTORM79(Juzzi)

Checksums or Fingerprints:
# MD5 checksums generated by MD5summer (http://www.md5summer.org)
# Generated 1.12.2016 6:24:48

91f4d0ed781a635ab9de9666ec910e3f *VIDEO_TS/VIDEO_TS.BUP
91f4d0ed781a635ab9de9666ec910e3f *VIDEO_TS/VIDEO_TS.IFO
77d851f0d23611efe811cf9d83245184 *VIDEO_TS/VIDEO_TS.VOB
3f6483a40147fea422340d8e82cb8bb6 *VIDEO_TS/VTS_01_0.BUP
3f6483a40147fea422340d8e82cb8bb6 *VIDEO_TS/VTS_01_0.IFO
e6f30f17c4e06d21dca8d0dc33df8dda *VIDEO_TS/VTS_01_1.VOB
7aa5234a9e159fcac29cc2ad4459822f *VIDEO_TS/VTS_02_0.BUP
7aa5234a9e159fcac29cc2ad4459822f *VIDEO_TS/VTS_02_0.IFO
76a620bd2154d91573be7a8302e33e30 *VIDEO_TS/VTS_02_1.VOB
4fe0b4367721f083c73a8b267fc0284b *VIDEO_TS/VTS_02_2.VOB
badecc9489aee826e2cc3938a8084441 *VIDEO_TS/VTS_02_3.VOB
b0dc1ab20593da1cbd1fd5442937a745 *VIDEO_TS/VTS_02_4.VOB
98e3b7d0d46b51eb8b7478147cda129b *VIDEO_TS/VTS_02_5.VOB
Attached Images
This post has an attachment which you could see if you were registered.
This post has an attachment which you could see if you were registered.
This post has an attachment which you could see if you were registered.
This post has an attachment which you could see if you were registered.
This post has an attachment which you could see if you were registered.
Attached Files
This post has an attachment which you could see if you were registered.
Reply With Quote
  (#2) Old
Cliff1986 Cliff1986 is offline
Trader God
 
Cliff1986's Avatar


Join Date: 10.05.16
User ID: 73401
Posts: 1,007

Trader Rating: 8

Rate This Trader!



UL: 1.69 TB
DL: 1.01 TB
Ratio: 1.68
Seed Points: 24,277.60

Sharing Ratio
Policy


Torrent Thank You's: 1,562
Thanked Posts: 810

12.01.16, 12:52 AM

Thank You



Visit my new trade site

http://revengetradedvd.webcindario.com/
Reply With Quote
  (#3) Old
Metal Asylum Metal Asylum is offline
Trader God
 
Metal Asylum's Avatar


Join Date: 05.16.10
User ID: 45488
Posts: 1,216

Trader Rating: 0

Rate This Trader!



UL: 3.36 TB
DL: 1.99 TB
Ratio: 1.69
Seed Points: 242,098.60

Sharing Ratio
Policy


Torrent Thank You's: 0
Thanked Posts: 632

12.06.16, 04:52 PM

Mondo Thanks!!
Reply With Quote
  (#4) Old
tezeret tezeret is offline
Rookie


Join Date: 10.15.18
User ID: 76775
Posts: 10

Trader Rating: 0

Rate This Trader!



UL: 24.83 GB
DL: 21.22 GB
Ratio: 1.17
Seed Points: 259.60

Sharing Ratio
Policy


Torrent Thank You's: 0
Thanked Posts: 4

10.15.18, 12:02 PM

Quote:
Originally Posted by Cliff1986 View Post
Thank You
Thanks
Reply With Quote
Reply

Tags
1996-12-06, kiss, sweden

Thread Tools
Display Modes

Posting Rules
You may not post new threads
You may not post replies
You may not post attachments
You may not edit your posts

BB code is On
Smilies are On
[IMG] code is On
HTML code is Off

Forum Jump

Similar Threads
Thread Thread Starter Forum Replies Last Post
Trade!!!! Muttlange Non-Bit Torrent Trading 3 08.22.13 05:58 AM
UK DVD trader abramlord Non-Bit Torrent Trading 5 05.22.13 01:51 AM
My bootleg list (asian bands a priority, but I like ALMOST everything) StarslayerJo Trade Lists 1 10.19.12 11:35 PM
Here Is Part 2 Of My List All KISS waynesdvds Trade Lists 1 03.27.09 02:35 PM



1.jpg


Powered by vBulletin® Version 3.8.5
Copyright ©2000 - 2018, Jelsoft Enterprises Ltd.

WEB HOSTING: Hosting 4 Less

vB Forum Feeds by CinVin

Copyright © 2004-2018 JamToThis.com

vBulletin Skin developed by: vBStyles.com