JamToThis  
iTrader

Is your sharing ratio bad? Donate to our server costs and get upload credit!

Go Back   JamToThis > Bit Torrent Downloads > Video Bit Torrents

Reply
 
Thread Tools Display Modes
  (#1) Old
juzzi juzzi is offline
Trader Supreme


Join Date: 11.13.06
User ID: 14004
Posts: 552

Trader Rating: 27

Rate This Trader!



UL: 0.99 TB
DL: 985.39 GB
Ratio: 1.03
Seed Points: 3,498.40

Sharing Ratio
Policy


Torrent Thank You's: 4,119
Thanked Posts: 300

Video - Pro Shot Kiss - Asylum collection 1985-1986 - 11.28.16, 08:31 PM

Artist:
Kiss

Show or Bootleg Title:
Asylum collection 1985-1986

Show Venue:
Various

Source:
DVD - Pro Shot

Video Quality/Production Info:
Variable

Audio/Video Specs:
General
Complete name : C:\Users\Juzzi\Desktop\Kiss - Asylum collection 1985-1986\VIDEO_TS\VTS_01_1.VOB
Format : MPEG-PS
File size : 1 024 MiB
Duration : 25mn 14s
Overall bit rate mode : Variable
Overall bit rate : 5 671 Kbps
Writing library : (c) 1998-2006 Womble Multimedia, Inc. / MPEG Video Wizard (05/2006) / Jul 5 2006

Video
ID : 224 (0xE0)
Format : MPEG Video
Format version : Version 2
Format profile : Main@Main
Format settings, BVOP : Yes
Format settings, Matrix : Custom
Format settings, GOP : M=3, N=15
Format settings, picture struc : Frame
Duration : 25mn 14s
Bit rate mode : Variable
Bit rate : 5 302 Kbps
Maximum bit rate : 9 586 Kbps
Width : 704 pixels
Height : 480 pixels
Display aspect ratio : 4:3
Frame rate : 29.970 (30000/1001) fps
Standard : NTSC
Color space : YUV
Chroma subsampling : 4:2:0
Bit depth : 8 bits
Scan type : Interlaced
Scan order : Top Field First
Compression mode : Lossy
Bits/(Pixel*Frame) : 0.524
Time code of first frame : 00:00:00:00
Time code source : Group of pictures header
Stream size : 957 MiB (93%)
Writing library : (c) 1998-2006 Womble Multimedia, Inc. / MPEG Video Wizard (05/2006) / Jul 5 2006
Color primaries : BT.601 NTSC
Transfer characteristics : BT.601
Matrix coefficients : BT.601

Audio
ID : 189 (0xBD)-128 (0x80)
Format : AC-3
Format/Info : Audio Coding 3
Mode extension : CM (complete main)
Format settings, Endianness : Big
Muxing mode : DVD-Video
Duration : 25mn 14s
Bit rate mode : Constant
Bit rate : 256 Kbps
Channel(s) : 2 channels
Channel positions : Front: L R
Sampling rate : 48.0 KHz
Frame rate : 31.250 fps (1536 spf)
Compression mode : Lossy
Stream size : 46.2 MiB (5%)

Menu

Format:
NTSC

Set List/Chapters:
Kiss - Asylum collection 1985-1986

-Star portrait
-Tears are falling
-Whistle test-Gene and Paul interview
-Tears are falling
-Sky Trax - Lick it up - Tears are falling
Sky Trax
Gene and Paul Interview
Lick it up
Gene and Paul Interview
Tears are falling
Music box - Gene and Paul interview
Thrills in the night
Gene and Paul Interview
Tears are falling
Asylum tv ad
Sky trax
Who wants to be lonely
Thrills in the night
Uh all night x 2
Nightwatch Paul Stanley interview
Sounds - Exposed set
Asylum tour ad

Tampa FL 1986-01-07
-Detroit rock city

Abilene TX 1986-02-27

Backstage
Detroit rock city
Fits like a glove (cut)
Creatures of the night (cut)
Cold gin (cut)




I hope you like it !!!!

Checksums or Fingerprints:
# MD5 checksums generated by MD5summer (http://www.md5summer.org)
# Generated 29.11.2016 7:32:04

e19b865d6d064edea48d280e48aa9e7f *VIDEO_TS/VIDEO_TS.BUP
e19b865d6d064edea48d280e48aa9e7f *VIDEO_TS/VIDEO_TS.IFO
5f7973ff9e4152827994d4149c8af39d *VIDEO_TS/VIDEO_TS.VOB
bb3160510aa503aaffb49f01bfbffda0 *VIDEO_TS/VTS_01_0.BUP
bb3160510aa503aaffb49f01bfbffda0 *VIDEO_TS/VTS_01_0.IFO
a5ff586f57402b6e679fb2cf2a442fc7 *VIDEO_TS/VTS_01_0.VOB
75836f7094c3c231870f888482954f56 *VIDEO_TS/VTS_01_1.VOB
408393f534bbafc2410384f705c844a9 *VIDEO_TS/VTS_01_2.VOB
14d0865c67edac3a7ec2a135b011ac73 *VIDEO_TS/VTS_01_3.VOB
8a189a9e384b221c5e1e076cda41ffa5 *VIDEO_TS/VTS_01_4.VOB
Attached Images
This post has an attachment which you could see if you were registered.
This post has an attachment which you could see if you were registered.
This post has an attachment which you could see if you were registered.
This post has an attachment which you could see if you were registered.
This post has an attachment which you could see if you were registered.
Attached Files
This post has an attachment which you could see if you were registered.
Reply With Quote
  (#2) Old
ojotigre1972 ojotigre1972 is offline
Trader God
 
ojotigre1972's Avatar


Join Date: 09.19.11
User ID: 55812
Posts: 2,084

Trader Rating: 64

Rate This Trader!



UL: 4.29 TB
DL: 2.51 TB
Ratio: 1.71
Seed Points: 76,734.80

Sharing Ratio
Policy


Torrent Thank You's: 5,185
Thanked Posts: 1,111

11.30.16, 02:26 AM

Thank very much
Reply With Quote
  (#3) Old
Metal Asylum Metal Asylum is offline
Trader God
 
Metal Asylum's Avatar


Join Date: 05.16.10
User ID: 45488
Posts: 1,216

Trader Rating: 0

Rate This Trader!



UL: 3.36 TB
DL: 1.99 TB
Ratio: 1.69
Seed Points: 241,730.20

Sharing Ratio
Policy


Torrent Thank You's: 0
Thanked Posts: 632

12.06.16, 03:58 PM

Mondo Thanks!!
Reply With Quote
Reply

Tags
1985-1986, asylum, collection, kiss

Thread Tools
Display Modes

Posting Rules
You may not post new threads
You may not post replies
You may not post attachments
You may not edit your posts

BB code is On
Smilies are On
[IMG] code is On
HTML code is Off

Forum Jump

Similar Threads
Thread Thread Starter Forum Replies Last Post
My Updated Trade List Muzqueman Trade Lists 1 04.10.16 04:03 AM
UK DVD trader abramlord Non-Bit Torrent Trading 5 05.22.13 12:51 AM
Only AOR & Hard Rock DVD Trade list kingofhearts Trade Lists 28 05.08.12 01:33 PM



8.jpg


Powered by vBulletin® Version 3.8.5
Copyright ©2000 - 2018, Jelsoft Enterprises Ltd.

WEB HOSTING: Hosting 4 Less

vB Forum Feeds by CinVin

Copyright © 2004-2017 JamToThis.com

vBulletin Skin developed by: vBStyles.com