JamToThis  
iTrader

Is your sharing ratio bad? Donate to our server costs and get upload credit!

Go Back   JamToThis > Bit Torrent Downloads > Video Bit Torrents

Reply
 
Thread Tools Display Modes
  (#1) Old
juzzi juzzi is offline
Trader Supreme


Join Date: 11.13.06
User ID: 14004
Posts: 547

Trader Rating: 27

Rate This Trader!



UL: 0.99 TB
DL: 964.12 GB
Ratio: 1.05
Seed Points: 3,405.20

Sharing Ratio
Policy


Torrent Thank You's: 4,056
Thanked Posts: 295

Video - Audience Alice Cooper - London,England 1982-02-14 - 11.28.16, 09:17 AM

Artist:
Alice Cooper

Show or Bootleg Title:
London,England 1982-02-14

Show Venue:
Hammersmith Odeon

Source:
DVD - Audience

Video Quality/Production Info:
video quality is very poor,but this is one of few filmed videos from this tour

Audio/Video Specs:
General
Complete name : C:\Users\Juzzi\Desktop\Alice Cooper - Hammersmith 1982 DVD\VIDEO_TS\VTS_01_1.VOB
Format : MPEG-PS
File size : 1 024 MiB
Duration : 5mn 24s
Overall bit rate mode : Variable
Overall bit rate : 26.4 Mbps

Video
ID : 224 (0xE0)
Format : MPEG Video
Format version : Version 2
Format profile : Main@Main
Format settings, BVOP : Yes
Format settings, Matrix : Custom
Format settings, GOP : Variable
Format settings, picture struc : Frame
Duration : 5mn 24s
Bit rate mode : Variable
Bit rate : 24.4 Mbps
Maximum bit rate : 8 000 Kbps
Width : 720 pixels
Height : 480 pixels
Display aspect ratio : 4:3
Frame rate : 29.970 (30000/1001) fps
Standard : NTSC
Color space : YUV
Chroma subsampling : 4:2:0
Bit depth : 8 bits
Scan type : Interlaced
Scan order : Bottom Field First
Compression mode : Lossy
Bits/(Pixel*Frame) : 2.354
Time code of first frame : 00:00:00:00
Time code source : Group of pictures header
Stream size : 944 MiB (92%)
Color primaries : BT.601 NTSC
Transfer characteristics : BT.601
Matrix coefficients : BT.601

Audio
ID : 189 (0xBD)-160 (0xA0)
Format : PCM
Format settings, Endianness : Big
Format settings, Sign : Signed
Muxing mode : DVD-Video
Duration : 5mn 24s
Bit rate mode : Constant
Bit rate : 1 536 Kbps
Channel(s) : 2 channels
Sampling rate : 48.0 KHz
Bit depth : 16 bits
Stream size : 59.4 MiB (6%)

Menu

Format:
NTSC

Set List/Chapters:
Alice Cooper - Hammersmith odeon, London England 1982-02-14

Very poor quality but there isn`t many dvd shows from this tour...

i hope you still like it...



Intro
Who do you think we are
Model citizen
Go to hell (cut)
Guilty
18
Cold Ethyl
Only women bleed
No more mr.nice guy
Clones
Under my wheels
I never cry
Seven and seven is
Pain
Grim facts
Billion dollar babies

(Show is incomplete)

Checksums or Fingerprints:
# MD5 checksums generated by MD5summer (http://www.md5summer.org)
# Generated 28.11.2016 20:24:53

6d21c273e28af199522603ad5db20317 *VIDEO_TS/VIDEO_TS.BUP
6d21c273e28af199522603ad5db20317 *VIDEO_TS/VIDEO_TS.IFO
3e217e08ba74dcfda9406870cc7c1b3a *VIDEO_TS/VIDEO_TS.VOB
be7ef5d98d1dd63dfa96f2cc901eff20 *VIDEO_TS/VTS_01_0.BUP
be7ef5d98d1dd63dfa96f2cc901eff20 *VIDEO_TS/VTS_01_0.IFO
3448edc6a2da9a5be06e6c134f8d3ad4 *VIDEO_TS/VTS_01_0.VOB
de56a27404c46bfa2a3c3146bd10f424 *VIDEO_TS/VTS_01_1.VOB
205e684696dc3f1b644d7f3ac9adeb8b *VIDEO_TS/VTS_01_2.VOB
86fba964a7064109ae10eb1e9c1d0bf6 *VIDEO_TS/VTS_01_3.VOB
5838cbb3b54322e62792bdf2744afea2 *VIDEO_TS/VTS_01_4.VOB
Attached Images
This post has an attachment which you could see if you were registered.
This post has an attachment which you could see if you were registered.
This post has an attachment which you could see if you were registered.
This post has an attachment which you could see if you were registered.
This post has an attachment which you could see if you were registered.
Attached Files
This post has an attachment which you could see if you were registered.

Last edited by juzzi; 11.28.16 at 09:19 AM.
Reply With Quote
  (#2) Old
harjen harjen is offline
Trader Supreme


Join Date: 11.14.05
User ID: 6649
Posts: 262

Trader Rating: 0

Rate This Trader!



UL: 1.19 TB
DL: 666.67 GB
Ratio: 1.83
Seed Points: 1,420.20

Sharing Ratio
Policy


Torrent Thank You's: 0
Thanked Posts: 106

11.28.16, 10:34 AM

thanks very much for this upload!!!
Reply With Quote
Reply

Tags
1982-02-14, alice, cooper, england, london

Thread Tools
Display Modes

Posting Rules
You may not post new threads
You may not post replies
You may not post attachments
You may not edit your posts

BB code is On
Smilies are On
[IMG] code is On
HTML code is Off

Forum Jump

Similar Threads
Thread Thread Starter Forum Replies Last Post
UK DVD trader abramlord Non-Bit Torrent Trading 5 05.22.13 12:51 AM
Alice Cooper - "Alice Bites Atlanta's Face Off " Theyodaddy Audio Bit Torrents 1 01.04.12 01:26 PM
ALICE COOPER - Santiago de Compostela, SPAIN 2010-11-27 blackmorerock Pulled Audio Torrents 12 02.12.11 10:29 AM
DVD TRADE (jazz-soul-funk-rock) artyty Trade Lists 1 10.21.10 08:35 PM
[BlogCritics] DVD Review: Alice Cooper Live In Montreux 2005 Rufus Rock News 0 05.21.06 08:00 AM



7.jpg


Powered by vBulletin® Version 3.8.5
Copyright ©2000 - 2018, Jelsoft Enterprises Ltd.

WEB HOSTING: Hosting 4 Less

vB Forum Feeds by CinVin

Copyright © 2004-2017 JamToThis.com

vBulletin Skin developed by: vBStyles.com