JamToThis  
iTrader

Is your sharing ratio bad? Donate to our server costs and get upload credit!

Go Back   JamToThis > Bit Torrent Downloads > Video Bit Torrents

Reply
 
Thread Tools Display Modes
  (#1) Old
juzzi juzzi is offline
Trader Supreme


Join Date: 11.13.06
User ID: 14004
Posts: 548

Trader Rating: 27

Rate This Trader!



UL: 0.99 TB
DL: 964.12 GB
Ratio: 1.05
Seed Points: 3,405.20

Sharing Ratio
Policy


Torrent Thank You's: 4,072
Thanked Posts: 296

Video - Pro Shot Alice Cooper - Moscow TV 2000-2002 - 11.17.16, 12:25 PM

Artist:
Alice Cooper

Show or Bootleg Title:
Moscow TV 2000-2002

Show Venue:
Moscow

Source:
DVD - Pro Shot

Video Quality/Production Info:
Video: A, Audio: A

Audio/Video Specs:
General
Complete name : C:\Users\Juzzi\Desktop\Alice Cooper - Moscow tv-2000-2002\VIDEO_TS\VTS_01_1.VOB
Format : MPEG-PS
File size : 1 000 MiB
Duration : 12mn 19s
Overall bit rate mode : Variable
Overall bit rate : 11.3 Mbps

Video
ID : 224 (0xE0)
Format : MPEG Video
Format version : Version 2
Format profile : Main@Main
Format settings, BVOP : No
Format settings, Matrix : Default
Format settings, GOP : Variable
Format settings, picture struc : Frame
Duration : 12mn 19s
Bit rate mode : Variable
Bit rate : 10.9 Mbps
Maximum bit rate : 9 400 Kbps
Width : 720 pixels
Height : 576 pixels
Display aspect ratio : 4:3
Frame rate : 25.000 fps
Standard : PAL
Color space : YUV
Chroma subsampling : 4:2:0
Bit depth : 8 bits
Scan type : Interlaced
Scan order : Top Field First
Compression mode : Lossy
Bits/(Pixel*Frame) : 1.054
Time code of first frame : 00:00:00:00
Time code source : Group of pictures header
GOP, Open/Closed : Open
GOP, Open/Closed of first fram : Closed
Stream size : 963 MiB (96%)
Color primaries : BT.601 PAL
Transfer characteristics : BT.470 System B, BT.470 System G
Matrix coefficients : BT.601

Audio
ID : 189 (0xBD)-128 (0x80)
Format : AC-3
Format/Info : Audio Coding 3
Mode extension : CM (complete main)
Format settings, Endianness : Big
Muxing mode : DVD-Video
Duration : 12mn 19s
Bit rate mode : Constant
Bit rate : 192 Kbps
Channel(s) : 2 channels
Channel positions : Front: L R
Sampling rate : 48.0 KHz
Frame rate : 31.250 fps (1536 spf)
Compression mode : Lossy
Stream size : 16.9 MiB (2%)

Menu

Format:
PAL

Set List/Chapters:
this is for hardcore fans only. but if you understand russian language then you can maybe enjoy this dvd ...




This DVD contains a lot of interviews, etc.

Checksums or Fingerprints:
# MD5 checksums generated by MD5summer (http://www.md5summer.org)
# Generated 17.11.2016 23:32:54

55b311af9cd8c78cfa0a298b516c5919 *VIDEO_TS/VIDEO_TS.BUP
55b311af9cd8c78cfa0a298b516c5919 *VIDEO_TS/VIDEO_TS.IFO
774703b2abe6f493cce1fe86ab9555c3 *VIDEO_TS/VIDEO_TS.VOB
f8d5195d86764dfb043f7844be938c79 *VIDEO_TS/VTS_01_0.BUP
f8d5195d86764dfb043f7844be938c79 *VIDEO_TS/VTS_01_0.IFO
e26b5bf28556847929a642b24a7bbd7f *VIDEO_TS/VTS_01_0.VOB
2b38fb5b185fface572d828d8b93edbe *VIDEO_TS/VTS_01_1.VOB
1f81dcb8a3041b701a03cf705722d233 *VIDEO_TS/VTS_01_2.VOB
88eb9919a95db4990d0fbdab7f8ba2c6 *VIDEO_TS/VTS_01_3.VOB
7635502dede68e46b2e61a587a63d311 *VIDEO_TS/VTS_01_4.VOB
d42c865229f6d5bff7d450643b279826 *VIDEO_TS/VTS_01_5.VOB
Attached Images
This post has an attachment which you could see if you were registered.
This post has an attachment which you could see if you were registered.
This post has an attachment which you could see if you were registered.
This post has an attachment which you could see if you were registered.
This post has an attachment which you could see if you were registered.
Attached Files
This post has an attachment which you could see if you were registered.
Reply With Quote
  (#2) Old
killerwolf13 killerwolf13 is offline
Trader God
 
killerwolf13's Avatar


Join Date: 12.14.11
User ID: 57169
Posts: 1,184
Location: Northern California

Trader Rating: 0

Rate This Trader!



UL: 5.22 TB
DL: 2.57 TB
Ratio: 2.03
Seed Points: 33,504.60

Sharing Ratio
Policy


Torrent Thank You's: 0
Thanked Posts: 802

11.17.16, 03:09 PM

Thanks for the post.


I have Ronnie James DIO artwork sorted by year. folders are to the left in Library:

http://s1235.photobucket.com/user/Di...?sort=3&page=1

Long Live the Magic & Music of Ronnie James DIO!
Reply With Quote
  (#3) Old
harjen harjen is offline
Trader Supreme


Join Date: 11.14.05
User ID: 6649
Posts: 262

Trader Rating: 0

Rate This Trader!



UL: 1.19 TB
DL: 666.67 GB
Ratio: 1.83
Seed Points: 1,420.20

Sharing Ratio
Policy


Torrent Thank You's: 0
Thanked Posts: 106

11.18.16, 10:37 AM

thnaks a lot for another COOP dvd!!!
Reply With Quote
  (#4) Old
twist_11 twist_11 is offline
Rookie


Join Date: 11.10.16
User ID: 73709
Posts: 7

Trader Rating: 0

Rate This Trader!



UL: 16.89 GB
DL: 22.35 GB
Ratio: 0.76
Seed Points: 173.40

Sharing Ratio
Policy


Torrent Thank You's: 0
Thanked Posts: 4

11.23.16, 04:45 AM

76
Reply With Quote
Reply

Tags
2000-2002, alice, cooper, moscow, tv

Thread Tools
Display Modes

Posting Rules
You may not post new threads
You may not post replies
You may not post attachments
You may not edit your posts

BB code is On
Smilies are On
[IMG] code is On
HTML code is Off

Forum Jump

Similar Threads
Thread Thread Starter Forum Replies Last Post
UK DVD trader abramlord Non-Bit Torrent Trading 5 05.22.13 12:51 AM
ALICE COOPER - Santiago de Compostela, SPAIN 2010-11-27 blackmorerock Pulled Audio Torrents 12 02.12.11 10:29 AM
DVD TRADE (jazz-soul-funk-rock) artyty Trade Lists 1 10.21.10 08:35 PM
HI there Always Looking to Trade diamondmedia1 Trade Lists 40 09.22.10 07:58 AM



5.jpg


Powered by vBulletin® Version 3.8.5
Copyright ©2000 - 2018, Jelsoft Enterprises Ltd.

WEB HOSTING: Hosting 4 Less

vB Forum Feeds by CinVin

Copyright © 2004-2017 JamToThis.com

vBulletin Skin developed by: vBStyles.com