JamToThis  
iTrader

Is your sharing ratio bad? Donate to our server costs and get upload credit!

Go Back   JamToThis > Bit Torrent Downloads > Video Bit Torrents

Reply
 
Thread Tools Display Modes
  (#1) Old
juzzi juzzi is offline
Trader Supreme


Join Date: 11.13.06
User ID: 14004
Posts: 547

Trader Rating: 27

Rate This Trader!



UL: 0.99 TB
DL: 964.12 GB
Ratio: 1.05
Seed Points: 3,405.20

Sharing Ratio
Policy


Torrent Thank You's: 4,044
Thanked Posts: 295

Video - Audience wasp - Toronto, ON,Canada 1987-01-27 - 11.04.16, 05:49 AM

Artist:
wasp

Show or Bootleg Title:
Toronto, ON,Canada 1987-01-27

Show Venue:
Canada

Source:
DVD - Audience

Video Quality/Production Info:
Video; C, Audio: C

Audio/Video Specs:
General
Complete name : C:\Users\Juzzi\Desktop\Wasp - Toronto 87 dvd\VIDEO_TS\VTS_01_2.VOB
Format : MPEG-PS
File size : 1 024 MiB
Duration : 17mn 56s
Overall bit rate mode : Variable
Overall bit rate : 7 976 Kbps

Video
ID : 224 (0xE0)
Format : MPEG Video
Format version : Version 2
Format profile : Main@Main
Format settings, BVOP : Yes
Format settings, Matrix : Default
Format settings, GOP : Variable
Format settings, picture struc : Frame
Duration : 17mn 56s
Bit rate mode : Variable
Bit rate : 7 625 Kbps
Maximum bit rate : 8 300 Kbps
Width : 720 pixels
Height : 576 pixels
Display aspect ratio : 4:3
Frame rate : 25.000 fps
Standard : PAL
Color space : YUV
Chroma subsampling : 4:2:0
Bit depth : 8 bits
Scan type : Interlaced
Scan order : Top Field First
Compression mode : Lossy
Bits/(Pixel*Frame) : 0.735
Time code of first frame : 00:18:08:06
Time code source : Group of pictures header
GOP, Open/Closed : Closed
Stream size : 979 MiB (96%)

Audio
ID : 189 (0xBD)-128 (0x80)
Format : AC-3
Format/Info : Audio Coding 3
Mode extension : CM (complete main)
Format settings, Endianness : Big
Muxing mode : DVD-Video
Duration : 17mn 56s
Bit rate mode : Constant
Bit rate : 192 Kbps
Channel(s) : 2 channels
Channel positions : Front: L R
Sampling rate : 48.0 KHz
Frame rate : 31.250 fps (1536 spf)
Compression mode : Lossy
Delay relative to video : -93ms
Stream size : 24.6 MiB (2%)

Menu

Format:
PAL

Set List/Chapters:
The Big Welcome
Inside the Electric Circus
I Don't Need No Doctor
L.O.V.E. Machine
Wild Child
95 N.A.S.T.Y.
Widowmaker
Sleeping (in the Fire)
Sex Drive
I Wanna Be Somebody
Animal (Fuck Like a Beast)
Blind in Texas

Checksums or Fingerprints:
# MD5 checksums generated by MD5summer (http://www.md5summer.org)
# Generated 4.11.2016 15:52:31

d16eb4fea34f01fc81a4e4ad1d3bdae9 *VIDEO_TS/VIDEO_TS.BUP
d16eb4fea34f01fc81a4e4ad1d3bdae9 *VIDEO_TS/VIDEO_TS.IFO
a3e9df34cd97258483a8f23a747b6047 *VIDEO_TS/VTS_01_0.BUP
a3e9df34cd97258483a8f23a747b6047 *VIDEO_TS/VTS_01_0.IFO
ce02535409e889a64fa2a417b722cbb6 *VIDEO_TS/VTS_01_0.VOB
26a33eb2becbf3222d100698d71f6161 *VIDEO_TS/VTS_01_1.VOB
9afdd4680a2d7edd2a7cd5ae34831368 *VIDEO_TS/VTS_01_2.VOB
225e4313dc8ab9abc419fcf6664f8935 *VIDEO_TS/VTS_01_3.VOB
a1c452aa43b05e92b72424108def5de9 *VIDEO_TS/VTS_01_4.VOB
Attached Images
This post has an attachment which you could see if you were registered.
This post has an attachment which you could see if you were registered.
This post has an attachment which you could see if you were registered.
This post has an attachment which you could see if you were registered.
This post has an attachment which you could see if you were registered.
Attached Files
This post has an attachment which you could see if you were registered.
Reply With Quote
  (#2) Old
killerwolf13 killerwolf13 is offline
Trader God
 
killerwolf13's Avatar


Join Date: 12.14.11
User ID: 57169
Posts: 1,179
Location: Northern California

Trader Rating: 0

Rate This Trader!



UL: 5.19 TB
DL: 2.56 TB
Ratio: 2.03
Seed Points: 33,318.40

Sharing Ratio
Policy


Torrent Thank You's: 0
Thanked Posts: 797

11.05.16, 07:00 AM

Thanks for the post...this is the Pepdevil Edition version that was shared on dime Sept. 2015.


I have Ronnie James DIO artwork sorted by year. folders are to the left in Library:

http://s1235.photobucket.com/user/Di...?sort=3&page=1

Long Live the Magic & Music of Ronnie James DIO!
Reply With Quote
  (#3) Old
studlymuffin studlymuffin is offline
Studly


Join Date: 05.27.06
User ID: 10772
Posts: 714

Trader Rating: 1

Rate This Trader!



UL: 1.95 TB
DL: 1.49 TB
Ratio: 1.31
Seed Points: 16,769.60

Sharing Ratio
Policy


Torrent Thank You's: 75
Thanked Posts: 367

11.05.16, 12:49 PM

Thank you
Reply With Quote
  (#4) Old
Metal Asylum Metal Asylum is offline
Trader God
 
Metal Asylum's Avatar


Join Date: 05.16.10
User ID: 45488
Posts: 1,206

Trader Rating: 0

Rate This Trader!



UL: 3.34 TB
DL: 1.97 TB
Ratio: 1.69
Seed Points: 240,154.00

Sharing Ratio
Policy


Torrent Thank You's: 0
Thanked Posts: 627

11.12.16, 08:28 PM

Mondo Thanks!!
Reply With Quote
Reply

Tags
1987-01-27, canada, toronto, wasp

Thread Tools
Display Modes

Posting Rules
You may not post new threads
You may not post replies
You may not post attachments
You may not edit your posts

BB code is On
Smilies are On
[IMG] code is On
HTML code is Off

Forum Jump

Similar Threads
Thread Thread Starter Forum Replies Last Post
UK DVD trader abramlord Non-Bit Torrent Trading 5 05.22.13 12:51 AM
Only AOR & Hard Rock DVD Trade list kingofhearts Trade Lists 28 05.08.12 01:33 PM



4.jpg


Powered by vBulletin® Version 3.8.5
Copyright ©2000 - 2018, Jelsoft Enterprises Ltd.

WEB HOSTING: Hosting 4 Less

vB Forum Feeds by CinVin

Copyright © 2004-2017 JamToThis.com

vBulletin Skin developed by: vBStyles.com