JamToThis  
iTrader

Is your sharing ratio bad? Donate to our server costs and get upload credit!

Go Back   JamToThis > Bit Torrent Downloads > Video Bit Torrents

Reply
 
Thread Tools Display Modes
  (#1) Old
juzzi juzzi is offline
Trader Supreme


Join Date: 11.13.06
User ID: 14004
Posts: 559

Trader Rating: 28

Rate This Trader!



UL: 0.99 TB
DL: 0.98 TB
Ratio: 1.01
Seed Points: 3,530.40

Sharing Ratio
Policy


Torrent Thank You's: 4,191
Thanked Posts: 306

Video - Pro Shot wasp - Finland TV-Specials + New Jersey 1998 - 10.31.16, 10:20 AM

Artist:
wasp

Show or Bootleg Title:
Finland TV-Specials + New Jersey 1998

Show Venue:
various

Source:
DVD - Pro Shot

Video Quality/Production Info:
Variable

Audio/Video Specs:
General
Complete name : C:\Users\Juzzi\Desktop\Wasp - Finland tv specials\VIDEO_TS\VTS_01_1.VOB
Format : MPEG-PS
File size : 918 MiB
Duration : 14mn 6s
Overall bit rate mode : Variable
Overall bit rate : 9 106 Kbps

Video
ID : 224 (0xE0)
Format : MPEG Video
Format version : Version 2
Format profile : Main@Main
Format settings, BVOP : Yes
Format settings, Matrix : Custom
Format settings, GOP : M=3, N=12
Format settings, picture struc : Frame
Duration : 14mn 6s
Bit rate mode : Variable
Bit rate : 8 669 Kbps
Maximum bit rate : 9 396 Kbps
Width : 720 pixels
Height : 576 pixels
Display aspect ratio : 4:3
Frame rate : 25.000 fps
Standard : PAL
Color space : YUV
Chroma subsampling : 4:2:0
Bit depth : 8 bits
Scan type : Interlaced
Scan order : Top Field First
Compression mode : Lossy
Bits/(Pixel*Frame) : 0.836
Time code of first frame : 00:00:00:00
Time code source : Group of pictures header
GOP, Open/Closed : Open
GOP, Open/Closed of first fram : Closed
Stream size : 874 MiB (95%)

Audio
ID : 189 (0xBD)-128 (0x80)
Format : AC-3
Format/Info : Audio Coding 3
Mode extension : CM (complete main)
Format settings, Endianness : Big
Muxing mode : DVD-Video
Duration : 14mn 5s
Bit rate mode : Constant
Bit rate : 256 Kbps
Channel(s) : 2 channels
Channel positions : Front: L R
Sampling rate : 48.0 KHz
Frame rate : 31.250 fps (1536 spf)
Compression mode : Lossy
Stream size : 25.8 MiB (3%)

Menu

Format:
PAL

Set List/Chapters:
These clips are transfered from my vhs-collection...
i hope you like it ...
Hellstorm79


- Interview ( Jyrki-tv special MTV-3) 2001

- Interview (YLE-TV) 2006


Bonus : (incomplete)

Meadowsland Arena New Jersey xx-xx-1998

on your knees
I don`t need no doctor
Hellion
Chainsaw Charlie
Wild child
Animal (Fuck like a beast)
L.O.V.E. machine



Hellstorm79 (Juzzi)

Checksums or Fingerprints:
# MD5 checksums generated by MD5summer (http://www.md5summer.org)
# Generated 31.10.2016 19:23:07

64528825d5e5b5416c9b9026296c76a8 *VIDEO_TS/VIDEO_TS.BUP
64528825d5e5b5416c9b9026296c76a8 *VIDEO_TS/VIDEO_TS.IFO
052becd2045efdb27d84dc7b673cba16 *VIDEO_TS/VIDEO_TS.VOB
7cb8a362db2d25ac5b48e2d2afe744f5 *VIDEO_TS/VTS_01_0.BUP
7cb8a362db2d25ac5b48e2d2afe744f5 *VIDEO_TS/VTS_01_0.IFO
b3a3cafb62e8c1fe106ee5b9559683e9 *VIDEO_TS/VTS_01_1.VOB
d27018500fc77564cdc5eb16cfac05bc *VIDEO_TS/VTS_01_2.VOB
9f198839de95537b994703e995564bba *VIDEO_TS/VTS_01_3.VOB
2a6b78ac9827b0d8e3c84f435c187cdf *VIDEO_TS/VTS_01_4.VOB
Attached Images
This post has an attachment which you could see if you were registered.
This post has an attachment which you could see if you were registered.
This post has an attachment which you could see if you were registered.
This post has an attachment which you could see if you were registered.
This post has an attachment which you could see if you were registered.
Attached Files
This post has an attachment which you could see if you were registered.
Reply With Quote
  (#2) Old
killerwolf13 killerwolf13 is offline
Trader God
 
killerwolf13's Avatar


Join Date: 12.14.11
User ID: 57169
Posts: 1,212
Location: Northern California

Trader Rating: 0

Rate This Trader!



UL: 5.39 TB
DL: 2.69 TB
Ratio: 2.00
Seed Points: 37,823.60

Sharing Ratio
Policy


Torrent Thank You's: 0
Thanked Posts: 824

10.31.16, 10:28 AM

Thanks for the W.A.S.P. I saw them on these ttours...except 1998...by the time the Iron Maiden - DIO - W.A.S.P - Dirty Deeds tour got to my area...the show was cancelled.


I have Ronnie James DIO artwork sorted by year. folders are to the left in Library:

http://s1235.photobucket.com/user/Di...?sort=3&page=1

Long Live the Magic & Music of Ronnie James DIO!
Reply With Quote
  (#3) Old
urfold urfold is offline
We Came To Rock
 
urfold's Avatar


Join Date: 09.03.09
User ID: 40325
Posts: 4,422
Location: Pandemonium

Trader Rating: 278

Rate This Trader!



UL: 12.64 TB
DL: 7.83 TB
Ratio: 1.61
Seed Points: 817,154.80

Sharing Ratio
Policy


Torrent Thank You's: 14,315
Thanked Posts: 2,174

10.31.16, 12:30 PM

Thanks very much !!




************************

Great New Lossless Torrent Bootleg Site
http://liveshownation.com/index.php
Reply With Quote
  (#4) Old
Metal Asylum Metal Asylum is offline
Trader God
 
Metal Asylum's Avatar


Join Date: 05.16.10
User ID: 45488
Posts: 1,216

Trader Rating: 0

Rate This Trader!



UL: 3.36 TB
DL: 1.99 TB
Ratio: 1.69
Seed Points: 242,116.00

Sharing Ratio
Policy


Torrent Thank You's: 0
Thanked Posts: 632

11.12.16, 09:29 PM

Mondo Thanks!!
Reply With Quote
Reply

Tags
1998, finland, jersey, tv-specials, wasp

Thread Tools
Display Modes

Posting Rules
You may not post new threads
You may not post replies
You may not post attachments
You may not edit your posts

BB code is On
Smilies are On
[IMG] code is On
HTML code is Off

Forum Jump

Similar Threads
Thread Thread Starter Forum Replies Last Post
My DVD trade list Metromania Trade Lists 5 08.29.13 10:30 PM
UK DVD trader abramlord Non-Bit Torrent Trading 5 05.22.13 01:51 AM
Only AOR & Hard Rock DVD Trade list kingofhearts Trade Lists 28 05.08.12 02:33 PM



8.jpg


Powered by vBulletin® Version 3.8.5
Copyright ©2000 - 2018, Jelsoft Enterprises Ltd.

WEB HOSTING: Hosting 4 Less

vB Forum Feeds by CinVin

Copyright © 2004-2018 JamToThis.com

vBulletin Skin developed by: vBStyles.com