JamToThis  
iTrader

Is your sharing ratio bad? Donate to our server costs and get upload credit!

Go Back   JamToThis > Bit Torrent Downloads > Video Bit Torrents

Reply
 
Thread Tools Display Modes
  (#1) Old
Drsin Drsin is offline
Trader


Join Date: 05.29.16
User ID: 72298
Posts: 172

Trader Rating: 0

Rate This Trader!



UL: 164.27 GB
DL: 214.64 GB
Ratio: 0.77
Seed Points: 1,990.80

Sharing Ratio
Policy


Torrent Thank You's: 409
Thanked Posts: 144

Motorhead - Lowlands Festival, Biddinghuizen, The Netherlands 2007-08-19 - 06.01.16, 03:51 PM

Artist:
Motorhead

Show or Bootleg Title:
Lowlands Festival, Biddinghuizen, The Netherlands2007-08-19

Show Venue:
Lowlands Festival, The Netherlands

Source:
DVD - Pro Shot

Video Quality/Production Info:
Video: A, Audio: A

Audio/Video Specs:
Audio/Video Specs:
Video
Video
ID : 224 (0xE0)
Format : MPEG Video
Format version : Version 2
Format profile : Main@Main
Format settings, BVOP : Yes
Format settings, Matrix : Custom
Format settings, GOP : Variable
Format settings, picture structure : Frame
Bit rate mode : Variable
Bit rate : 7 925 Kbps
Maximum bit rate : 8 051 Kbps
Width : 720 pixels
Height : 576 pixels
Display aspect ratio : 4:3
Frame rate : 25.000 fps
Standard : PAL
Color space : YUV
Chroma subsampling : 4:2:0
Bit depth : 8 bits
Scan type : Interlaced
Scan order : Top Field First
Compression mode : Lossy
Bits/(Pixel*Frame) : 0.764
Time code of first frame : 00:54:05:19
Time code source : Group of pictures header
GOP, Open/Closed : Open
Stream size : 834 MiB (82%)

Audio
ID : 189 (0xBD)-160 (0xA0)
Format : PCM
Format settings, Endianness : Big
Format settings, Sign : Signed
Muxing mode : DVD-Video
Bit rate mode : Constant
Bit rate : 1 536 Kbps
Channel(s) : 2 channels
Sampling rate : 8.0 KHz
Bit depth : 16 bits
Delay relative to video : -294ms
Stream size : 162 MiB (16%)

Format:
PAL

Set List/Chapters:
Setlist:

01. Snaggletooth
02. Stay Clean
03. Be My Baby
04. Killers
05. Metropolis
06. Over The Top
07. One Night Stand
08. In The Name Of Tragedy
09. I Got Mine
10. Sacrifice
11. Going To Brazil
12. Killed By Death
13. Aces Of Spades
14. Overkill

Checksums or Fingerprints:
3cc7c9d45d4e9a8280340af2af85d23b *VIDEO_TS\VIDEO_TS.BUP
3cc7c9d45d4e9a8280340af2af85d23b *VIDEO_TS\VIDEO_TS.IFO
649f32ade7c546cd97db26f57d7cb141 *VIDEO_TS\VIDEO_TS.md5
5cf7e87fe7a51ecb5cda5b2488caba20 *VIDEO_TS\VIDEO_TS.VOB
cba5e19ee46a0aa1750d9d18f5358651 *VIDEO_TS\VTS_01_0.BUP
cba5e19ee46a0aa1750d9d18f5358651 *VIDEO_TS\VTS_01_0.IFO
7e1a4d0e7b92e1f94548996400c58971 *VIDEO_TS\VTS_01_1.VOB
cb3657b99e8a68d59847e5c0df099152 *VIDEO_TS\VTS_01_2.VOB
808e02dc193bc289d6749b368fa4fe1c *VIDEO_TS\VTS_01_3.VOB
1baec6744c47faabed93b61704182779 *VIDEO_TS\VTS_01_4.VOB
c4e10859afbd0b2f25b8e7d2d3db7450 *VIDEO_TS\VTS_01_5.VOB

Menu : NO
Chapters : NO
Artwork : YES
Attached Files
This post has an attachment which you could see if you were registered.

Last edited by Drsin; 06.01.16 at 03:54 PM.
Reply With Quote
Reply

Tags
2007-08-19, biddinghuizen, festival, lowlands, motorhead, netherlands

Thread Tools
Display Modes

Posting Rules
You may not post new threads
You may not post replies
You may not post attachments
You may not edit your posts

BB code is On
Smilies are On
[IMG] code is On
HTML code is Off

Forum Jump

Similar Threads
Thread Thread Starter Forum Replies Last Post
My DVD trade list Metromania Trade Lists 5 08.29.13 09:30 PM
Looking for DVD traders gtraynor24613 Trade Lists 0 04.18.13 04:38 AM
DVD TRADE (jazz-soul-funk-rock) artyty Trade Lists 1 10.21.10 08:35 PM
HI there Always Looking to Trade diamondmedia1 Trade Lists 40 09.22.10 07:58 AM



6.jpg


Powered by vBulletin® Version 3.8.5
Copyright ©2000 - 2018, Jelsoft Enterprises Ltd.

WEB HOSTING: Hosting 4 Less

vB Forum Feeds by CinVin

Copyright © 2004-2017 JamToThis.com

vBulletin Skin developed by: vBStyles.com