JamToThis  
iTrader

Is your sharing ratio bad? Donate to our server costs and get upload credit!

Go Back   JamToThis > Bit Torrent Downloads > Video Bit Torrents

Closed Thread
 
Thread Tools Display Modes
  (#1) Old
axlstillrocks axlstillrocks is offline
Trader


Join Date: 04.02.12
User ID: 59107
Posts: 48

Trader Rating: 0

Rate This Trader!



UL: 57.81 GB
DL: 61.78 GB
Ratio: 0.94
Seed Points: 497.60

Sharing Ratio
Policy


Torrent Thank You's: 122
Thanked Posts: 42

Video - Audience Guns N'Roses - 1993-03-06 - New Haven Coliseum - 03.27.16, 03:12 AM

Artist:
Guns N'Roses

Show or Bootleg Title:
1993-03-06 - New Haven Coliseum

Show Venue:
New Haven Connecticut

Source:
DVD - Audience

Video Quality/Production Info:
Video: A-, Audio: A-

Audio/Video Specs:
General
Complete name : E:\Guns N' Roses - 1993-03-06 - New Haven Coliseum, New Haven, CT [mrbrownstoneswarehouse]\VIDEO_TS\VTS_01_1.VOB
Format : MPEG-PS
File size : 1 024 MiB
Duration : 33mn 7s
Overall bit rate mode : Variable
Overall bit rate : 4 323 Kbps

Video
ID : 224 (0xE0)
Format : MPEG Video
Format version : Version 2
Format profile : Main@Main
Format settings, BVOP : Yes
Format settings, Matrix : Default
Format settings, GOP : M=3, N=15
Format settings, picture st : Frame
Duration : 33mn 7s
Bit rate mode : Variable
Bit rate : 3 981 Kbps
Maximum bit rate : 9 586 Kbps
Width : 704 pixels
Height : 480 pixels
Display aspect ratio : 4:3
Frame rate : 29.970 (30000/1001) fps
Standard : NTSC
Color space : YUV
Chroma subsampling : 4:2:0
Bit depth : 8 bits
Scan type : Interlaced
Scan order : Top Field First
Compression mode : Lossy
Bits/(Pixel*Frame) : 0.393
Time code of first frame : 00:00:00:00
Time code source : Group of pictures header
GOP, Open/Closed : Open
GOP, Open/Closed of first f : Closed
Stream size : 943 MiB (92%)
Color primaries : BT.601 NTSC
Transfer characteristics : BT.601
Matrix coefficients : BT.601

Audio
ID : 189 (0xBD)-128 (0x80)
Format : AC-3
Format/Info : Audio Coding 3
Mode extension : CM (complete main)
Format settings, Endianness : Big
Muxing mode : DVD-Video
Duration : 33mn 6s
Bit rate mode : Constant
Bit rate : 256 Kbps
Channel(s) : 2 channels
Channel positions : Front: L R
Sampling rate : 48.0 KHz
Frame rate : 31.250 fps (1536 spf)
Compression mode : Lossy
Stream size : 60.6 MiB (6%)

Format:
NTSC

Set List/Chapters:
Source: Low Gen > PC
TV system: NTSC
Running Time
Disc 1: 2 hour 09 min.

TRACKLIST:
Welcome To The Jungle
Nightrain
Live And Let Die
The Garden
So Fine
Attitude
Double Talkin'Jive
You Could Be Mine
You Ain't The First
You're Crazy
Used To Love Her
Patience
Knockin' On Heaven's Door
Piano Solo
November Rain
Dead Horse
Guitar Solo
Sweet Child O' Mine
Estranged
Since I Don't Have You (Intro)
Paradise City

Checksums or Fingerprints:
6c1b6004e1b4df17cb49f027e4a7f05d *VIDEO_TS\VIDEO_TS.BUP
6c1b6004e1b4df17cb49f027e4a7f05d *VIDEO_TS\VIDEO_TS.IFO
70fd729a59b192029e40741775f27350 *VIDEO_TS\VTS_01_0.BUP
70fd729a59b192029e40741775f27350 *VIDEO_TS\VTS_01_0.IFO
e8ef244fb2a975589fd6e6557822a4c5 *VIDEO_TS\VTS_01_0.VOB
90f02974d4e7d035586836d1aa5702ce *VIDEO_TS\VTS_01_1.VOB
f80e1f7c73ac4c0fd7c4430a419e9c73 *VIDEO_TS\VTS_01_2.VOB
f194ddc4fad99f74143378c4b5a44f0f *VIDEO_TS\VTS_01_3.VOB
b170de9e4f7c17962af3ed2ad75d2d8d *VIDEO_TS\VTS_01_4.VOB
Attached Images
This post has an attachment which you could see if you were registered.
This post has an attachment which you could see if you were registered.
This post has an attachment which you could see if you were registered.
Attached Files
This post has an attachment which you could see if you were registered.
Closed Thread

Tags
1993-03-06, coliseum, guns, haven, nroses

Thread Tools
Display Modes

Posting Rules
You may not post new threads
You may not post replies
You may not post attachments
You may not edit your posts

BB code is On
Smilies are On
[IMG] code is On
HTML code is Off

Forum Jump

Similar Threads
Thread Thread Starter Forum Replies Last Post
My Trade List Bruno Souza Trade Lists 2 04.01.15 07:29 AM
Only AOR & Hard Rock DVD Trade list kingofhearts Trade Lists 28 05.08.12 02:33 PM
My Dvd List MATMAT Trade Lists 22 05.02.12 06:10 AM
Sleaze/glam/rock/metal dvd trade list swedeaddict Trade Lists 2 09.05.08 09:59 PM



1.jpg


Powered by vBulletin® Version 3.8.5
Copyright ©2000 - 2018, Jelsoft Enterprises Ltd.

WEB HOSTING: Hosting 4 Less

vB Forum Feeds by CinVin

Copyright © 2004-2018 JamToThis.com

vBulletin Skin developed by: vBStyles.com