JamToThis  
iTrader

Is your sharing ratio bad? Donate to our server costs and get upload credit!

Go Back   JamToThis > Bit Torrent Downloads > Video Bit Torrents

Closed Thread
 
Thread Tools Display Modes
  (#1) Old
axlstillrocks axlstillrocks is offline
Trader


Join Date: 04.02.12
User ID: 59107
Posts: 48

Trader Rating: 0

Rate This Trader!



UL: 57.81 GB
DL: 61.78 GB
Ratio: 0.94
Seed Points: 497.60

Sharing Ratio
Policy


Torrent Thank You's: 122
Thanked Posts: 42

Video - Audience Guns N'Roses - 1991-12-31 - Joe Robbie Stadium, Miami, FL, USA [JOHNM VERSION] - 03.21.16, 09:02 AM

Artist:
Guns N'Roses

Show or Bootleg Title:
1991-12-31 - Joe Robbie Stadium, Miami, FL, USA [JOHNM VERSION]

Show Venue:
Joe Robbie Stadium Miami, FL USA

Source:
DVD - Audience

Video Quality/Production Info:
Video: A-, Audio: A- / John M Version

Audio/Video Specs:
General
Complete name : E:\Guns N' Roses - 1991-12-31 - Joe Robbie Stadium, Miami, FL, USA [JOHNM VERSION]\DVD 01\VIDEO_TS\VTS_02_1.VOB
Format : MPEG-PS
File size : 1 024 MiB
Duration : 15mn 42s
Overall bit rate mode : Variable
Overall bit rate : 9 110 Kbps

Video
ID : 224 (0xE0)
Format : MPEG Video
Format version : Version 2
Format profile : Main@Main
Format settings, BVOP : Yes
Format settings, Matrix : Default
Format settings, GOP : M=3, N=15
Format settings, picture st : Frame
Duration : 15mn 42s
Bit rate mode : Variable
Bit rate : 8 481 Kbps
Maximum bit rate : 9 350 Kbps
Width : 720 pixels
Height : 480 pixels
Display aspect ratio : 4:3
Frame rate : 29.970 (30000/1001) fps
Standard : NTSC
Color space : YUV
Chroma subsampling : 4:2:0
Bit depth : 8 bits
Scan type : Interlaced
Scan order : Bottom Field First
Compression mode : Lossy
Bits/(Pixel*Frame) : 0.819
Time code of first frame : 00:00:00:00
Time code source : Group of pictures header
GOP, Open/Closed : Open
GOP, Open/Closed of first f : Closed
Stream size : 953 MiB (93%)

Audio #1
ID : 189 (0xBD)-128 (0x80)
Format : AC-3
Format/Info : Audio Coding 3
Mode extension : CM (complete main)
Format settings, Endianness : Big
Muxing mode : DVD-Video
Duration : 15mn 42s
Bit rate mode : Constant
Bit rate : 224 Kbps
Channel(s) : 2 channels
Channel positions : Front: L R
Sampling rate : 48.0 KHz
Frame rate : 31.250 fps (1536 spf)
Compression mode : Lossy
Stream size : 25.2 MiB (2%)

Audio #2
ID : 189 (0xBD)-129 (0x81)
Format : AC-3
Format/Info : Audio Coding 3
Mode extension : CM (complete main)
Format settings, Endianness : Big
Muxing mode : DVD-Video
Duration : 15mn 42s
Bit rate mode : Constant
Bit rate : 224 Kbps
Channel(s) : 6 channels
Channel positions : Front: L C R, Side: L R, LFE
Sampling rate : 48.0 KHz
Frame rate : 31.250 fps (1536 spf)
Compression mode : Lossy
Stream size : 25.2 MiB (2%)

Format:
NTSC

Set List/Chapters:
TV system: NTSC
Running Time
Disc 1: 1 hour 06 min
Disc 2: 0 hour 56 min

TRACKLIST:
DVD 1
November Rain (cuts in)
You Could Be Mine
Band Introductions
Drum Solo
Guitar Solo
Godfather Theme
Sail Away Sweet Sister/Bad Time (Intro)/Sweet Child
Don’t Cry
Move To The City
Only Women Bleed(Intro)
Knockin' On Heavens Door
Encore Break
Estranged

DVD 2
STAGE SETUP
MTV Year In Rock 1991

Checksums or Fingerprints:
77b7e2d330b3a9ab41ba453f65c9ca87 *DVD 01\VIDEO_TS\VIDEO_TS.BUP
77b7e2d330b3a9ab41ba453f65c9ca87 *DVD 01\VIDEO_TS\VIDEO_TS.IFO
5f7973ff9e4152827994d4149c8af39d *DVD 01\VIDEO_TS\VIDEO_TS.VOB
8d6473b5608480fc1b97a27149b9cae9 *DVD 01\VIDEO_TS\VTS_01_0.BUP
8d6473b5608480fc1b97a27149b9cae9 *DVD 01\VIDEO_TS\VTS_01_0.IFO
22c9b7094b6d6a5abb446f8739861107 *DVD 01\VIDEO_TS\VTS_01_0.VOB
a4be7775cb143b96782465e5b2da0db2 *DVD 01\VIDEO_TS\VTS_01_1.VOB
4a04d8b1db1d05e9ad34de4edf186ac0 *DVD 01\VIDEO_TS\VTS_02_0.BUP
4a04d8b1db1d05e9ad34de4edf186ac0 *DVD 01\VIDEO_TS\VTS_02_0.IFO
5f7973ff9e4152827994d4149c8af39d *DVD 01\VIDEO_TS\VTS_02_0.VOB
e555e16aa5329157a9496f34f4be5707 *DVD 01\VIDEO_TS\VTS_02_1.VOB
a13c49ef01b74bf6b2a328b9d8daab9a *DVD 01\VIDEO_TS\VTS_02_2.VOB
f52bf4efcb11bd5f96d1c14a28325067 *DVD 01\VIDEO_TS\VTS_02_3.VOB
bb414ab5e1947b3d8551729723d2439a *DVD 01\VIDEO_TS\VTS_02_4.VOB
e38c427ea1ecf600ce3d643176279dec *DVD 01\VIDEO_TS\VTS_02_5.VOB
9667bbb65ac729a68e075d1b6a835c17 *DVD 02\VIDEO_TS\VIDEO_TS.BUP
9667bbb65ac729a68e075d1b6a835c17 *DVD 02\VIDEO_TS\VIDEO_TS.IFO
5f7973ff9e4152827994d4149c8af39d *DVD 02\VIDEO_TS\VIDEO_TS.VOB
fb2c44b6377ae71b373ea5aa25ae6950 *DVD 02\VIDEO_TS\VTS_01_0.BUP
fb2c44b6377ae71b373ea5aa25ae6950 *DVD 02\VIDEO_TS\VTS_01_0.IFO
d8006239eb31dd5727cfdd6720bc9863 *DVD 02\VIDEO_TS\VTS_01_0.VOB
d5014672635665c8329fab857aa3b104 *DVD 02\VIDEO_TS\VTS_01_1.VOB
f662e7372ef030cbd9953beb34653738 *DVD 02\VIDEO_TS\VTS_01_2.VOB
1ec8ed5d410abd6fb81bdeb992892d4f *DVD 02\VIDEO_TS\VTS_01_3.VOB
5414bba0a9dfc003fa7a3c1f3a5103ae *DVD 02\VIDEO_TS\VTS_01_4.VOB
b2eb56209130c0ca65352da04c91e656 *DVD 02\VIDEO_TS\VTS_02_0.BUP
b2eb56209130c0ca65352da04c91e656 *DVD 02\VIDEO_TS\VTS_02_0.IFO
5f7973ff9e4152827994d4149c8af39d *DVD 02\VIDEO_TS\VTS_02_0.VOB
60b939cd8747fa560e9b1747f929681e *DVD 02\VIDEO_TS\VTS_02_1.VOB
Attached Files
This post has an attachment which you could see if you were registered.
Closed Thread

Tags
1991-12-31, fl, guns, joe, johnm, miami, nroses, robbie, stadium, usa, version

Thread Tools
Display Modes

Posting Rules
You may not post new threads
You may not post replies
You may not post attachments
You may not edit your posts

BB code is On
Smilies are On
[IMG] code is On
HTML code is Off

Forum Jump

Similar Threads
Thread Thread Starter Forum Replies Last Post
Www.livedvdarchive.com Suff22886 Trade Lists 3 08.22.15 12:39 PM
Only AOR & Hard Rock DVD Trade list kingofhearts Trade Lists 28 05.08.12 01:33 PM
My Metallica DVD List.....looking for traders..!! unforgiven Trade Lists 0 04.14.09 04:37 AM
DVD Trading Site Suff22886 Trade Lists 4 03.15.09 02:59 AM



7.jpg


Powered by vBulletin® Version 3.8.5
Copyright ©2000 - 2018, Jelsoft Enterprises Ltd.

WEB HOSTING: Hosting 4 Less

vB Forum Feeds by CinVin

Copyright © 2004-2017 JamToThis.com

vBulletin Skin developed by: vBStyles.com