JamToThis  
iTrader

Is your sharing ratio bad? Donate to our server costs and get upload credit!

Go Back   JamToThis > Bit Torrent Downloads > Video Bit Torrents

Closed Thread
 
Thread Tools Display Modes
  (#1) Old
Sadbuttrue Sadbuttrue is offline
Trader Supreme


Join Date: 08.07.06
User ID: 12362
Posts: 384

Trader Rating: 6

Rate This Trader!



UL: 1.96 TB
DL: 839.68 GB
Ratio: 2.39
Seed Points: 379,882.20

Sharing Ratio
Policy


Torrent Thank You's: 1,977
Thanked Posts: 275

HD - Pro Shot Motorhead - Madrid, Spain - 2010 06 14 - 02.20.16, 01:30 AM

Artist:
Motorhead

Show or Bootleg Title:
Madrid, Spain - 2010 06 14

Show Venue:
Rock In Rio, Ciudad Del Rock

Source:
DVD - Pro Shot

Video Quality/Production Info:
A

Audio/Video Specs:
Video
ID : 224 (0xE0)
Format : MPEG Video
Format version : Version 2
Format profile : Main@Main
Format settings, BVOP : Yes
Format settings, Matrix : Custom
Format settings, GOP: Variable
Format settings, picture structure : Frame
Bit rate mode : Variable
Bit rate : 4 638 Kbps
Maximum bit rate : 15.0 Mbps
Width : 720 pixels
Height : 576 pixels
Display aspect ratio : 16:9
Frame rate : 25.000 fps
Standard : PAL
Color space : YUV
Chroma subsampling : 4:2:0
Bit depth : 8 bits
Scan type : Interlaced
Scan order : Top Field First
Compression mode : Lossy
Bits/(Pixel*Frame) : 0.447
Time code of first frame : 00:00:00:00
Time code source : Group of pictures header
Stream size : 964 MiB (94%)
Writing library : TMPGEnc DVD Author 3 Version. 3.1.2.176
Color primaries : BT.601 PAL
Transfer characteristics : BT.470 System B, BT.470 System G
Matrix coefficients : BT.601

Audio
ID : 192 (0xC0)
Format : MPEG Audio
Format version : Version 1
Format profile : Layer 2
Bit rate mode : Constant
Bit rate : 192 Kbps
Channel(s) : 2 channels
Sampling rate : 48.0 KHz
Compression mode : Lossy
Stream size : 39.9 MiB (4%)

Format:
PAL

Set List/Chapters:
01. Iron Fist
02. Stay Clean
03. Be My Baby
04. Rock Out
05. Metropolis
06. Over The Top
07. One Night Stand
08. Guitar Solo
09. The Thousand Names Of God
10. Cradle To The Grave
11. In The Name Of Tragedy
12. Drum Solo
13. Going To Brazil
14. Killed By Death
15. Aces Of Spades
16. Overkill

Checksums or Fingerprints:
1a43145f1d9437dd964a7e2694f6d008 *VIDEO_TS.BUP
1a43145f1d9437dd964a7e2694f6d008 *VIDEO_TS.IFO
15c7a8d53a8291071124d563fc91b040 *VTS_01_0.BUP
15c7a8d53a8291071124d563fc91b040 *VTS_01_0.IFO
77721947442b5e69f7447a8236aaed72 *VTS_01_1.VOB
20b9da3b8e6b466e0ee7ba48ee12b939 *VTS_01_2.VOB
2ea02e6e4720d070632b8e33e633e077 *VTS_01_3.VOB

RIP Lemmy
Attached Images
This post has an attachment which you could see if you were registered.
This post has an attachment which you could see if you were registered.
This post has an attachment which you could see if you were registered.
This post has an attachment which you could see if you were registered.
This post has an attachment which you could see if you were registered.
Attached Files
This post has an attachment which you could see if you were registered.

Last edited by Sadbuttrue; 02.20.16 at 02:54 AM.
  (#2) Old
Sadbuttrue Sadbuttrue is offline
Trader Supreme


Join Date: 08.07.06
User ID: 12362
Posts: 384

Trader Rating: 6

Rate This Trader!



UL: 1.96 TB
DL: 839.68 GB
Ratio: 2.39
Seed Points: 379,882.20

Sharing Ratio
Policy


Torrent Thank You's: 1,977
Thanked Posts: 275

02.20.16, 02:54 AM

Sorry Guys, I made a mistake in the category it's a DVD not HD Pro
Closed Thread

Tags
06, 14, 2010, madrid, motorhead, spain

Thread Tools
Display Modes

Posting Rules
You may not post new threads
You may not post replies
You may not post attachments
You may not edit your posts

BB code is On
Smilies are On
[IMG] code is On
HTML code is Off

Forum Jump

Similar Threads
Thread Thread Starter Forum Replies Last Post
Heavy/Power Bootleg Empire (dvd, bluray and audio) Hallowed Trade Lists 1 11.25.15 03:35 PM
My Heavy/Power Bootlegs trade list Hallowed Trade Lists 3 08.03.14 07:50 AM
My DVD trade list Metromania Trade Lists 5 08.29.13 10:30 PM
UK DVD trader abramlord Non-Bit Torrent Trading 5 05.22.13 01:51 AM
Only AOR & Hard Rock DVD Trade list kingofhearts Trade Lists 28 05.08.12 02:33 PM



8.jpg


Powered by vBulletin® Version 3.8.5
Copyright ©2000 - 2018, Jelsoft Enterprises Ltd.

WEB HOSTING: Hosting 4 Less

vB Forum Feeds by CinVin

Copyright © 2004-2018 JamToThis.com

vBulletin Skin developed by: vBStyles.com