JamToThis  
iTrader

Is your sharing ratio bad? Donate to our server costs and get upload credit!

Go Back   JamToThis > Bit Torrent Downloads > Video Bit Torrents

Closed Thread
 
Thread Tools Display Modes
  (#1) Old
ojotigre1972 ojotigre1972 is offline
Trader God
 
ojotigre1972's Avatar


Join Date: 09.19.11
User ID: 55812
Posts: 2,084

Trader Rating: 64

Rate This Trader!



UL: 4.29 TB
DL: 2.51 TB
Ratio: 1.71
Seed Points: 76,734.80

Sharing Ratio
Policy


Torrent Thank You's: 5,181
Thanked Posts: 1,111

Video - Audience KISS-Ft. Worth, TX-VERS IAS 2011 - Fort Worth, TX 1986-86-02-28 - 02.08.16, 09:54 AM

Artist:
KISS-Ft. Worth, TX-VERS IAS 2011

Show or Bootleg Title:
Fort Worth, TX 1986-86-02-28

Show Venue:
Tarrant County Convention Center-Worth, TX

Source:
DVD - Audience

Video Quality/Production Info:
B/B

Audio/Video Specs:
Video
ID : 224 (0xE0)
Format : MPEG Video
Format version : Version 2
Format profile : Main@Main
Format settings, BVOP : Yes
Format settings, Matrix : Custom
Format settings, GOP : M=3, N=18
Duration : 14mn 18s
Bit rate : 9 080 Kbps
Width : 720 pixels
Height : 480 pixels
Display aspect ratio : 4:3
Frame rate : 29.970 fps
Standard : NTSC
Color space : YUV
Chroma subsampling : 4:2:0
Bit depth : 8 bits
Scan type : Interlaced
Scan order : Top Field First
Compression mode : Lossy
Bits/(Pixel*Frame) : 0.877
Time code of first frame : 00:28:36:11
Time code source : Group of pictures header
Stream size : 925 MiB (90%)
Color primaries : BT.601 NTSC
Transfer characteristics : BT.601
Matrix coefficients : BT.601

Audio #1
ID : 189 (0xBD)-128 (0x80)
Format : AC-3
Format/Info : Audio Coding 3
Mode extension : CM (complete main)
Format settings, Endianness : Big
Muxing mode : DVD-Video
Duration : 14mn 18s
Bit rate mode : Constant
Bit rate : 384 Kbps
Channel count : 6 channels
Channel positions : Front: L C R, Side: L R, LFE
Sampling rate : 48.0 KHz
Bit depth : 16 bits
Compression mode : Lossy
Delay relative to video : -678ms
Stream size : 39.3 MiB (4%)

Audio #2
ID : 189 (0xBD)-129 (0x81)
Format : AC-3
Format/Info : Audio Coding 3
Mode extension : CM (complete main)
Format settings, Endianness : Big
Muxing mode : DVD-Video
Duration : 14mn 18s
Bit rate mode : Constant
Bit rate : 384 Kbps
Channel count : 6 channels
Channel positions : Front: L C R, Side: L R, LFE
Sampling rate : 48.0 KHz
Bit depth : 16 bits
Compression mode : Lossy
Delay relative to video : -678ms
Stream size : 39.3 MiB (4%)

Format:
NTSC

Set List/Chapters:
Setlist:
Detroit rock city
Fits like a glove
Creatures of the night
Cold gin
Uh! all night
War machine
Love gun
I still love you
I love it loud
Heaven's on fire
Rock and roll all nite
Tears are falling
Won't get fooled again

MENU AND CHAPTERS-YES

Checksums or Fingerprints:
590ec088cb0e2e0c4daf5fb12f035f4f *VIDEO_TS/VIDEO_TS.BUP
ef66eadc5c93a67af7e3ddcdc86fbd52 *VIDEO_TS/VIDEO_TS.IFO
7b48e2759fb1d910317a9bad1e06c7ad *VIDEO_TS/VIDEO_TS.VOB
48a2d2f37026c48854bf48f208f4b13b *VIDEO_TS/VTS_01_0.BUP
48a2d2f37026c48854bf48f208f4b13b *VIDEO_TS/VTS_01_0.IFO
4f92928372fce98032b2af4513e2ceb9 *VIDEO_TS/VTS_01_0.VOB
f5a9cd7726c79263c71f8953737d3824 *VIDEO_TS/VTS_01_1.VOB
e2587eb713c6d7bb5b29bed822e85dc6 *VIDEO_TS/VTS_01_2.VOB
2c3fd3db358b793742934d2354c3f2e6 *VIDEO_TS/VTS_01_3.VOB
42079fc48ce5086645f5b5d8f4e8f57e *VIDEO_TS/VTS_01_4.VOB
7512d7ec5001183f6026f2ec219f263c *VIDEO_TS/VTS_01_5.VOB
f74b9d5d40203db65ae731872b4eb0d7 *VIDEO_TS/VTS_01_6.VOB
e0fd7e6b4853592ac9ac73df9d83783f *desktop.ini

Tarrant County Coliseum, Ft. Worth, TX-AUTHORED BY IAS 2011 Remaster UPGRADE

Attached Images
This post has an attachment which you could see if you were registered.
This post has an attachment which you could see if you were registered.
This post has an attachment which you could see if you were registered.
This post has an attachment which you could see if you were registered.
This post has an attachment which you could see if you were registered.
Attached Files
This post has an attachment which you could see if you were registered.
  (#2) Old
Lizzy7141990 Lizzy7141990 is offline
Trader Supreme


Join Date: 03.20.11
User ID: 52487
Posts: 368

Trader Rating: 0

Rate This Trader!



UL: 1.07 TB
DL: 801.99 GB
Ratio: 1.37
Seed Points: 15,980.00

Sharing Ratio
Policy


Torrent Thank You's: 0
Thanked Posts: 247

02.08.16, 01:02 PM

Thanks
  (#3) Old
studlymuffin studlymuffin is offline
Studly


Join Date: 05.27.06
User ID: 10772
Posts: 729

Trader Rating: 1

Rate This Trader!



UL: 1.98 TB
DL: 1.51 TB
Ratio: 1.31
Seed Points: 17,408.40

Sharing Ratio
Policy


Torrent Thank You's: 75
Thanked Posts: 376

02.09.16, 08:43 AM

Thank you awesome show
  (#4) Old
Metal Asylum Metal Asylum is offline
Trader God
 
Metal Asylum's Avatar


Join Date: 05.16.10
User ID: 45488
Posts: 1,216

Trader Rating: 0

Rate This Trader!



UL: 3.36 TB
DL: 1.99 TB
Ratio: 1.69
Seed Points: 241,508.60

Sharing Ratio
Policy


Torrent Thank You's: 0
Thanked Posts: 632

02.13.16, 01:20 PM

Mondo Thanks!!
  (#5) Old
Heallvy62 Heallvy62 is offline
Trader Supreme
 
Heallvy62's Avatar


Join Date: 01.24.13
User ID: 64033
Posts: 351
Location: France (North)

Trader Rating: 4

Rate This Trader!



UL: 293.69 GB
DL: 371.17 GB
Ratio: 0.79
Seed Points: 17,728.80

Sharing Ratio
Policy


Torrent Thank You's: 1,431
Thanked Posts: 171

02.20.16, 03:28 AM

Thanks Javi !
  (#6) Old
Evermore77 Evermore77 is offline
Rookie


Join Date: 10.21.15
User ID: 71146
Posts: 28

Trader Rating: 0

Rate This Trader!



UL: 0.00 kB
DL: 26.65 GB
Ratio: 0.00
Seed Points: 0.00

Sharing Ratio
Policy


Torrent Thank You's: 0
Thanked Posts: 26

03.22.16, 04:03 PM

Thanks
Closed Thread

Tags
1986-86-02-28, 2011, fort, ias, kiss-ft., tx, tx-vers, worth

Thread Tools
Display Modes

Posting Rules
You may not post new threads
You may not post replies
You may not post attachments
You may not edit your posts

BB code is On
Smilies are On
[IMG] code is On
HTML code is Off

Forum Jump

Similar Threads
Thread Thread Starter Forum Replies Last Post
Trade!!!! Muttlange Non-Bit Torrent Trading 3 08.22.13 04:58 AM
UK DVD trader abramlord Non-Bit Torrent Trading 5 05.22.13 12:51 AM
Here Is Part 2 Of My List All KISS waynesdvds Trade Lists 1 03.27.09 01:35 PM
Classic Heavy Rock & Metal + Kiss DVD's for Trade Bulletproof Music Trade Lists 10 12.22.08 04:52 AM



3.jpg


Powered by vBulletin® Version 3.8.5
Copyright ©2000 - 2018, Jelsoft Enterprises Ltd.

WEB HOSTING: Hosting 4 Less

vB Forum Feeds by CinVin

Copyright © 2004-2017 JamToThis.com

vBulletin Skin developed by: vBStyles.com