JamToThis  
iTrader

Is your sharing ratio bad? Donate to our server costs and get upload credit!

Go Back   JamToThis > Bit Torrent Downloads > Video Bit Torrents

Closed Thread
 
Thread Tools Display Modes
  (#1) Old
Born Again Born Again is offline
Trader
 
Born Again's Avatar


Join Date: 10.31.09
User ID: 41495
Posts: 139

Trader Rating: 18

Rate This Trader!



UL: 716.23 GB
DL: 267.13 GB
Ratio: 2.68
Seed Points: 5,488.60

Sharing Ratio
Policy


Torrent Thank You's: 1,640
Thanked Posts: 82

Video - Pro Shot VA-VH-1 Glam&Hard Collection-2-DVD - 1991-93 - 10.29.15, 11:16 AM

Artist:
VA-VH-1 Glam&Hard Collection-2-DVD

Show or Bootleg Title:
1991-93

Show Venue:


Source:


Video Quality/Production Info:


Audio/Video Specs:
General
Complete name : H:\HBB\VA-VH-1 Glam&Hard Collection-2-DVD\VH1-1\VTS_02_1.VOB
Format : MPEG-PS
File size : 1 024 MiB
Duration : 17mn 26s
Overall bit rate mode : Variable
Overall bit rate : 8 212 Kbps

Video
ID : 224 (0xE0)
Format : MPEG Video
Format version : Version 2
Format profile : Main@Main
Format settings, BVOP : Yes
Format settings, Matrix : Default
Format settings, GOP : M=3, N=12
Duration : 17mn 26s
Bit rate mode : Variable
Bit rate : 7 600 Kbps
Maximum bit rate : 9 445 Kbps
Width : 720 pixels
Height : 576 pixels
Display aspect ratio : 4:3
Frame rate : 25.000 fps
Standard : PAL
Color space : YUV
Chroma subsampling : 4:2:0
Bit depth : 8 bits
Scan type : Interlaced
Scan order : Top Field First
Compression mode : Lossy
Bits/(Pixel*Frame) : 0.733
Time code of first frame : 00:00:00:00
Time code source : Group of pictures header
Stream size : 948 MiB (93%)
Color primaries : BT.601 PAL
Transfer characteristics : BT.470 System B, BT.470 System G
Matrix coefficients : BT.601

Audio
ID : 189 (0xBD)-128 (0x80)
Format : AC-3
Format/Info : Audio Coding 3
Mode extension : CM (complete main)
Format settings, Endianness : Big
Muxing mode : DVD-Video
Duration : 17mn 25s
Bit rate mode : Constant
Bit rate : 448 Kbps
Channel(s) : 2 channels
Channel positions : Front: L R
Sampling rate : 48.0 KHz
Bit depth : 16 bits
Compression mode : Lossy
Stream size : 55.9 MiB (5%)

Menu

Format:


Set List/Chapters:


Checksums or Fingerprints:
# MD5 checksums generated by MD5summer (http://www.md5summer.org)
# Generated 29.10.2015 21:12:28

1b6754b0a2cd0fcc56c0f3ed8a6c0b78 *VH1-1/VIDEO_TS.BUP
1b6754b0a2cd0fcc56c0f3ed8a6c0b78 *VH1-1/VIDEO_TS.IFO
579c4625d442230477c4c5174a78fce8 *VH1-1/VTS_01_0.BUP
579c4625d442230477c4c5174a78fce8 *VH1-1/VTS_01_0.IFO
424a2964acf16821443455159cd91a04 *VH1-1/VTS_01_1.VOB
1821ff144b43e6f4076330134485171a *VH1-1/VTS_02_0.BUP
1821ff144b43e6f4076330134485171a *VH1-1/VTS_02_0.IFO
e649fde384baebbbbbcdaa4856160f9c *VH1-1/VTS_02_1.VOB
5ebf3baba69840d40f8a84746f7f18b2 *VH1-1/VTS_02_2.VOB
41121a60e8d1dbb6ca144d25ae975f6d *VH1-1/VTS_02_3.VOB
f858546d33cee55fd636589202470aa5 *VH1-1/VTS_02_4.VOB
08c288785390c3616f5560715c0136d8 *VH1-1/VTS_03_0.BUP
08c288785390c3616f5560715c0136d8 *VH1-1/VTS_03_0.IFO
90b483f14177a28a77bfbb5d5194408e *VH1-1/VTS_03_1.VOB
e6821c3cb3553ec8b1ed304fcc7d3c79 *VH1-2/VIDEO_TS.BUP
e6821c3cb3553ec8b1ed304fcc7d3c79 *VH1-2/VIDEO_TS.IFO
579c4625d442230477c4c5174a78fce8 *VH1-2/VTS_01_0.BUP
579c4625d442230477c4c5174a78fce8 *VH1-2/VTS_01_0.IFO
424a2964acf16821443455159cd91a04 *VH1-2/VTS_01_1.VOB
d7ea9ca3c0ce5fe29fea755e945ddb73 *VH1-2/VTS_02_0.BUP
d7ea9ca3c0ce5fe29fea755e945ddb73 *VH1-2/VTS_02_0.IFO
246f36f3c8b2372133a21a7433582b4d *VH1-2/VTS_02_1.VOB
ca99aabf6fbc99928041a46332c03e1a *VH1-2/VTS_02_2.VOB
daa48287395e73178a7c0d18ca2d474d *VH1-2/VTS_02_3.VOB
0208d4ab5fc935c52410f4028a5f4e9c *VH1-2/VTS_02_4.VOB
9ff752432e7a6c57502f7427fc17d0cb *VH1-2/VTS_03_0.BUP
9ff752432e7a6c57502f7427fc17d0cb *VH1-2/VTS_03_0.IFO
bf076065f8a56e1a8420ca6a932f73f9 *VH1-2/VTS_03_1.VOB

Attached Images
This post has an attachment which you could see if you were registered.
This post has an attachment which you could see if you were registered.
Attached Files
This post has an attachment which you could see if you were registered.
  (#2) Old
jordan jordan is offline
Trader God


Join Date: 02.04.09
User ID: 34607
Posts: 1,544

Trader Rating: 0

Rate This Trader!



UL: 1.91 TB
DL: 2.41 TB
Ratio: 0.79
Seed Points: 684,442.00

Sharing Ratio
Policy


Torrent Thank You's: 207
Thanked Posts: 786

10.29.15, 03:38 PM

  (#3) Old
Robcc Robcc is offline
RBC


Join Date: 11.16.07
User ID: 23754
Posts: 816

Trader Rating: 14

Rate This Trader!



UL: 831.06 GB
DL: 918.32 GB
Ratio: 0.90
Seed Points: 82,835.00

Sharing Ratio
Policy


Torrent Thank You's: 3,982
Thanked Posts: 303

10.29.15, 05:13 PM

Please, have set-list and more details.
Thanks
  (#4) Old
SerialSon SerialSon is offline
Trader God


Join Date: 02.10.09
User ID: 34779
Posts: 1,412

Trader Rating: 0

Rate This Trader!



UL: 6.20 TB
DL: 5.65 TB
Ratio: 1.10
Seed Points: 41,353.00

Sharing Ratio
Policy


Torrent Thank You's: 0
Thanked Posts: 1,314

11.07.15, 09:38 AM

Thank you!
Closed Thread

Tags
1991-93, collection-2-dvd, glamandhard, va-vh-1

Thread Tools
Display Modes

Posting Rules
You may not post new threads
You may not post replies
You may not post attachments
You may not edit your posts

BB code is On
Smilies are On
[IMG] code is On
HTML code is Off

Forum Jump

Similar Threads
Thread Thread Starter Forum Replies Last Post
Marilyn Manson DVDs/Lossless Audios & Other DVD Bands Trade List MMcollector Trade Lists 23 08.20.11 02:17 PM
Bastich Trade List Bastich Trade Lists 10 08.20.11 09:32 AM
My Bon Jovi DVD's list slavek94 Trade Lists 0 05.03.11 11:11 AM
My Metallica DVD List.....looking for traders..!! unforgiven Trade Lists 0 04.14.09 05:37 AM
kiss ,motley crue traders wanted here are my lists thecrue General Trade Discussion 13 05.02.08 10:55 PM



2.jpg


Powered by vBulletin® Version 3.8.5
Copyright ©2000 - 2018, Jelsoft Enterprises Ltd.

WEB HOSTING: Hosting 4 Less

vB Forum Feeds by CinVin

Copyright © 2004-2018 JamToThis.com

vBulletin Skin developed by: vBStyles.com