JamToThis  
iTrader

Is your sharing ratio bad? Donate to our server costs and get upload credit!

Go Back   JamToThis > Bit Torrent Downloads > Video Bit Torrents

Closed Thread
 
Thread Tools Display Modes
  (#1) Old
Born Again Born Again is offline
Trader
 
Born Again's Avatar


Join Date: 10.31.09
User ID: 41495
Posts: 139

Trader Rating: 18

Rate This Trader!



UL: 716.23 GB
DL: 267.13 GB
Ratio: 2.68
Seed Points: 5,488.60

Sharing Ratio
Policy


Torrent Thank You's: 1,633
Thanked Posts: 82

Video - Pro Shot Headbangers ball with Faith No More - 18.07.1992 - 10.29.15, 06:35 AM

Artist:
Headbangers ball with Faith No More

Show or Bootleg Title:
18.07.1992

Show Venue:


Source:
DVD - Pro Shot

Video Quality/Production Info:


Audio/Video Specs:
General
Complete name : H:\HBB\Headbangers ball (USA) with Faith No More\VTS_01_1.VOB
Format : MPEG-PS
File size : 1 024 MiB
Duration : 18mn 49s
Overall bit rate mode : Variable
Overall bit rate : 7 603 Kbps
Writing library : encoded by TMPGEnc 4.0 XPress Version. 4.7.4.299

Video
ID : 224 (0xE0)
Format : MPEG Video
Format version : Version 2
Format profile : Main@Main
Format settings, BVOP : Yes
Format settings, Matrix : Custom
Format settings, GOP : Variable
Duration : 18mn 49s
Bit rate mode : Variable
Bit rate : 7 260 Kbps
Maximum bit rate : 9 641 Kbps
Width : 720 pixels
Height : 480 pixels
Display aspect ratio : 4:3
Frame rate : 29.970 fps
Standard : NTSC
Color space : YUV
Chroma subsampling : 4:2:0
Bit depth : 8 bits
Scan type : Interlaced
Scan order : Top Field First
Compression mode : Lossy
Bits/(Pixel*Frame) : 0.701
Time code of first frame : 00:00:00:00
Time code source : Group of pictures header
Stream size : 978 MiB (95%)
Writing library : TMPGEnc XPress 4.7.4.299
Color primaries : BT.470 System M
Transfer characteristics : BT.470 System M
Matrix coefficients : BT.601

Audio
ID : 189 (0xBD)-128 (0x80)
Format : AC-3
Format/Info : Audio Coding 3
Mode extension : CM (complete main)
Format settings, Endianness : Big
Muxing mode : DVD-Video
Duration : 18mn 49s
Bit rate mode : Constant
Bit rate : 192 Kbps
Channel(s) : 2 channels
Channel positions : Front: L R
Sampling rate : 48.0 KHz
Bit depth : 16 bits
Compression mode : Lossy
Delay relative to video : -33ms
Stream size : 25.9 MiB (3%)

Menu

Format:
NTSC

Set List/Chapters:


Checksums or Fingerprints:
# MD5 checksums generated by MD5summer (http://www.md5summer.org)
# Generated 29.10.2015 17:30:37

fa850b7e095e25af4cb2b4874f76fcc9 *Thumbs.db
71f3565c4bd862faed450dc2e696eca9 *VIDEO_TS.BUP
71f3565c4bd862faed450dc2e696eca9 *VIDEO_TS.IFO
48aed556150ea219212ff25eb2eebb6f *VIDEO_TS.VOB
267c0bfdf9f7be5e1f2cb4b1b1618dfc *VTS_01_0.BUP
267c0bfdf9f7be5e1f2cb4b1b1618dfc *VTS_01_0.IFO
a5a8adddb21a4131f91791163e08d77f *VTS_01_1.VOB
2563d9c48feb61f825e41dadca48c228 *VTS_01_2.VOB
01ae7b6cd91d7c520f72fc2affad6a71 *VTS_01_3.VOB
b5e494b393dbfe5242bcfe41e7d2eca8 *VTS_01_4.VOB
4bd5e0f4296dab3006438a586dc817f4 *VTS_01_5.VOB
bc051557200185b51d18ee5287d7de7c *VTS_01_6.VOB
a1ee1dbe6643bbe848adac7ff8720534 *VTS_01_7.VOB
056f4b6d893f6253547dc0fdcf58b696 *VTS_01_8.VOB

Attached Images
This post has an attachment which you could see if you were registered.
This post has an attachment which you could see if you were registered.
Attached Files
This post has an attachment which you could see if you were registered.
  (#2) Old
Metallican Metallican is offline
Trader Supreme
 
Metallican's Avatar


Join Date: 01.12.06
User ID: 7653
Posts: 529

Trader Rating: 65

Rate This Trader!



UL: 3.39 TB
DL: 1.49 TB
Ratio: 2.28
Seed Points: 4,429.00

Sharing Ratio
Policy


Torrent Thank You's: 2,549
Thanked Posts: 352

10.29.15, 07:40 AM

Thank You !!
  (#3) Old
Wrathchild Wrathchild is offline
Trader Supreme
 
Wrathchild's Avatar


Join Date: 03.18.08
User ID: 27544
Posts: 512

Trader Rating: 2

Rate This Trader!



UL: 2.86 TB
DL: 1.54 TB
Ratio: 1.85
Seed Points: 2,737.60

Sharing Ratio
Policy


Torrent Thank You's: 233
Thanked Posts: 310

10.29.15, 07:42 AM

Thanks for this


For All Your Iron Maiden lossless bootlegs join Powerslaved
http://www.powerslaved.com/index.php
  (#4) Old
jordan jordan is offline
Trader God


Join Date: 02.04.09
User ID: 34607
Posts: 1,544

Trader Rating: 0

Rate This Trader!



UL: 1.91 TB
DL: 2.41 TB
Ratio: 0.79
Seed Points: 684,442.00

Sharing Ratio
Policy


Torrent Thank You's: 207
Thanked Posts: 786

10.29.15, 02:39 PM

  (#5) Old
gatomike gatomike is offline
Trader God


Join Date: 02.02.08
User ID: 26369
Posts: 1,961

Trader Rating: 116

Rate This Trader!



UL: 11.19 TB
DL: 2.53 TB
Ratio: 4.43
Seed Points: 271,497.80

Sharing Ratio
Policy


Torrent Thank You's: 7,507
Thanked Posts: 1,590

10.29.15, 07:16 PM

thanks was looking for this episode for a long time.Hope to see some more US episodes with guests or guest hosts in the future.
  (#6) Old
SerialSon SerialSon is offline
Trader God


Join Date: 02.10.09
User ID: 34779
Posts: 1,405

Trader Rating: 0

Rate This Trader!



UL: 6.12 TB
DL: 5.59 TB
Ratio: 1.09
Seed Points: 39,779.60

Sharing Ratio
Policy


Torrent Thank You's: 0
Thanked Posts: 1,307

11.07.15, 08:34 AM

Thank you!
Closed Thread

Tags
18.07.1992, ball, faith, headbangers

Thread Tools
Display Modes

Posting Rules
You may not post new threads
You may not post replies
You may not post attachments
You may not edit your posts

BB code is On
Smilies are On
[IMG] code is On
HTML code is Off

Forum Jump

Similar Threads
Thread Thread Starter Forum Replies Last Post
Former 'Headbangers Ball' Host RIKI RACHTMAN To Launch New Hard Rock/Metal Video Show Rufus Rock News 1 08.01.18 08:48 AM
Headbangers ball - two episodes of headbanger's ball from some time in 1987 satan Video Bit Torrents 18 03.03.11 01:41 AM
My updated list Tommy Lee Trade Lists 3 12.23.10 06:09 PM
MTV Headbangers Ball Uncensored Documentry - MTV Headbangers Ball Uncensored 2001 gatomike Video Bit Torrents 36 10.04.10 07:13 PM



6.jpg


Powered by vBulletin® Version 3.8.5
Copyright ©2000 - 2018, Jelsoft Enterprises Ltd.

WEB HOSTING: Hosting 4 Less

vB Forum Feeds by CinVin

Copyright © 2004-2017 JamToThis.com

vBulletin Skin developed by: vBStyles.com