JamToThis  
iTrader

Is your sharing ratio bad? Donate to our server costs and get upload credit!

Go Back   JamToThis > Bit Torrent Downloads > Video Bit Torrents

Closed Thread
 
Thread Tools Display Modes
  (#1) Old
Born Again Born Again is offline
Trader
 
Born Again's Avatar


Join Date: 10.31.09
User ID: 41495
Posts: 139

Trader Rating: 18

Rate This Trader!



UL: 716.23 GB
DL: 267.13 GB
Ratio: 2.68
Seed Points: 5,488.60

Sharing Ratio
Policy


Torrent Thank You's: 1,639
Thanked Posts: 82

Video - Pro Shot MTV Headbangers Ball Thrash&Speed-3 - 1991-1993 - 10.13.15, 10:43 AM

Artist:
MTV Headbangers Ball Thrash&Speed-3

Show or Bootleg Title:
1991-1993

Show Venue:


Source:
DVD - Pro Shot

Video Quality/Production Info:


Audio/Video Specs:
General
Complete name : D:\Thrash-Speed 3\VIDEO_TS\VTS_01_1.VOB
Format : MPEG-PS
File size : 450 MiB
Duration : 6mn 28s
Overall bit rate mode : Variable
Overall bit rate : 9 715 Kbps

Video
ID : 224 (0xE0)
Format : MPEG Video
Format version : Version 2
Format profile : Main@Main
Format settings, BVOP : No
Format settings, Matrix : Default
Format settings, GOP : N=10
Format settings, picture st : Frame
Duration : 6mn 28s
Bit rate mode : Variable
Bit rate : 9 138 Kbps
Maximum bit rate : 8 910 Kbps
Width : 720 pixels
Height : 576 pixels
Display aspect ratio : 4:3
Frame rate : 25.000 fps
Standard : PAL
Color space : YUV
Chroma subsampling : 4:2:0
Bit depth : 8 bits
Scan type : Interlaced
Scan order : Top Field First
Compression mode : Lossy
Bits/(Pixel*Frame) : 0.881
Time code of first frame : 02:02:51:06
Time code source : Group of pictures header
GOP, Open/Closed : Closed
Stream size : 423 MiB (94%)

Audio
ID : 189 (0xBD)-128 (0x80)
Format : AC-3
Format/Info : Audio Coding 3
Mode extension : CM (complete main)
Format settings, Endianness : Big
Muxing mode : DVD-Video
Duration : 6mn 28s
Bit rate mode : Constant
Bit rate : 384 Kbps
Channel(s) : 2 channels
Channel positions : Front: L R
Sampling rate : 48.0 KHz
Bit depth : 16 bits
Compression mode : Lossy
Delay relative to video : -148ms
Stream size : 17.8 MiB (4%)

Text
ID : 189 (0xBD)-32 (0x20)
Format : RLE
Format/Info : Run-length encoding
Muxing mode : DVD-Video
Duration : 6mn 28s

Menu

Format:
PAL

Set List/Chapters:


Checksums or Fingerprints:
# MD5 checksums generated by MD5summer (http://www.md5summer.org)
# Generated 13.10.2015 20:39:55

ee7c733564b8e83d1fab6a7fc9374924 *VIDEO_TS/VIDEO_TS.BUP
ee7c733564b8e83d1fab6a7fc9374924 *VIDEO_TS/VIDEO_TS.IFO
f751a0c3f01fdee50f5b04bad23d0d86 *VIDEO_TS/VIDEO_TS.VOB
23988ec2ab4a0608065e252841375bc4 *VIDEO_TS/VTS_01_0.BUP
23988ec2ab4a0608065e252841375bc4 *VIDEO_TS/VTS_01_0.IFO
ca18af9f53049c8c69d9fbe93e2d4a93 *VIDEO_TS/VTS_01_1.VOB
a768d6492783f2c6d68f819ba2527fe9 *VIDEO_TS/VTS_01_2.VOB
c9bb03784e0e594251cdf1385dbfd22e *VIDEO_TS/VTS_01_3.VOB
e7e8d9fabc35a23061c21871b4548976 *VIDEO_TS/VTS_01_4.VOB
527c53ae94bfabe4f355699dca609dd3 *VIDEO_TS/VTS_01_5.VOB
7ff35fd15210cba2bb2568e72e3b4c2f *VIDEO_TS/VTS_01_6.VOB
e5a4ca22d62524acf4075225d4a62090 *VIDEO_TS/VTS_01_7.VOB
786db606d87c428e6c31f753330769ae *VIDEO_TS/VTS_01_8.VOB
6bf64fa2202f50fb9767b2768217defa *VIDEO_TS/VTS_01_9.VOB

Attached Files
This post has an attachment which you could see if you were registered.
  (#2) Old
leadersixx leadersixx is offline
Trader Supreme


Join Date: 03.01.08
User ID: 27034
Posts: 346

Trader Rating: 0

Rate This Trader!



UL: 124.78 GB
DL: 164.00 GB
Ratio: 0.76
Seed Points: 0.00

Sharing Ratio
Policy


Torrent Thank You's: 0
Thanked Posts: 148

10.13.15, 10:44 AM

Cool!!! Thanks
  (#3) Old
Wrathchild Wrathchild is offline
Trader Supreme
 
Wrathchild's Avatar


Join Date: 03.18.08
User ID: 27544
Posts: 515

Trader Rating: 2

Rate This Trader!



UL: 2.86 TB
DL: 1.56 TB
Ratio: 1.84
Seed Points: 2,737.60

Sharing Ratio
Policy


Torrent Thank You's: 234
Thanked Posts: 313

10.13.15, 01:22 PM

Thanks a lot


For All Your Iron Maiden lossless bootlegs join Powerslaved
http://www.powerslaved.com/index.php
  (#4) Old
alexhammer alexhammer is offline
Trader Supreme


Join Date: 01.10.12
User ID: 57539
Posts: 565

Trader Rating: 0

Rate This Trader!



UL: 1.32 TB
DL: 945.99 GB
Ratio: 1.42
Seed Points: 70,977.60

Sharing Ratio
Policy


Torrent Thank You's: 0
Thanked Posts: 428

10.13.15, 02:29 PM

thanks
  (#5) Old
crevardo crevardo is offline
Trader Supreme


Join Date: 02.08.12
User ID: 58100
Posts: 470

Trader Rating: 0

Rate This Trader!



UL: 1.75 TB
DL: 683.87 GB
Ratio: 2.62
Seed Points: 320.40

Sharing Ratio
Policy


Torrent Thank You's: 0
Thanked Posts: 350

10.14.15, 06:12 AM

Whats on dvd 1-3 ?? a few info will be welcomed !


greets
  (#6) Old
thestreets thestreets is offline
Rookie


Join Date: 10.22.15
User ID: 71152
Posts: 8

Trader Rating: 0

Rate This Trader!



UL: 0.00 kB
DL: 12.49 GB
Ratio: 0.00
Seed Points: 0.80

Sharing Ratio
Policy


Torrent Thank You's: 0
Thanked Posts: 4

10.22.15, 10:07 AM

thanks
  (#7) Old
SerialSon SerialSon is offline
Trader God


Join Date: 02.10.09
User ID: 34779
Posts: 1,411

Trader Rating: 0

Rate This Trader!



UL: 6.17 TB
DL: 5.64 TB
Ratio: 1.09
Seed Points: 41,327.80

Sharing Ratio
Policy


Torrent Thank You's: 0
Thanked Posts: 1,313

11.07.15, 08:14 AM

Thank you!
Closed Thread

Tags
1991-1993, ball, headbangers, mtv, thrashandspeed-3

Thread Tools
Display Modes

Posting Rules
You may not post new threads
You may not post replies
You may not post attachments
You may not edit your posts

BB code is On
Smilies are On
[IMG] code is On
HTML code is Off

Forum Jump

Similar Threads
Thread Thread Starter Forum Replies Last Post
UK DVD trader abramlord Non-Bit Torrent Trading 5 05.22.13 01:51 AM
Only AOR & Hard Rock DVD Trade list kingofhearts Trade Lists 28 05.08.12 02:33 PM
HI there Always Looking to Trade diamondmedia1 Trade Lists 40 09.22.10 08:58 AM



1.jpg


Powered by vBulletin® Version 3.8.5
Copyright ©2000 - 2018, Jelsoft Enterprises Ltd.

WEB HOSTING: Hosting 4 Less

vB Forum Feeds by CinVin

Copyright © 2004-2018 JamToThis.com

vBulletin Skin developed by: vBStyles.com