JamToThis  
iTrader

Is your sharing ratio bad? Donate to our server costs and get upload credit!

Go Back   JamToThis > Bit Torrent Downloads > Video Bit Torrents

Closed Thread
 
Thread Tools Display Modes
  (#1) Old
Born Again Born Again is offline
Trader
 
Born Again's Avatar


Join Date: 10.31.09
User ID: 41495
Posts: 139

Trader Rating: 18

Rate This Trader!



UL: 716.23 GB
DL: 267.13 GB
Ratio: 2.68
Seed Points: 5,488.60

Sharing Ratio
Policy


Torrent Thank You's: 1,631
Thanked Posts: 82

Aerosmith-Headbangers Ball 93 - 1993 - 10.09.15, 11:08 AM

Artist:
Aerosmith-Headbangers Ball 93

Show or Bootleg Title:
1993

Show Venue:
MTV

Source:
DVD - Pro Shot

Video Quality/Production Info:
A

Audio/Video Specs:
General
Complete name : C:\Aerosmith-Headbangers Ball 93\VTS_01_9.VOB
Format : MPEG-PS
File size : 470 MiB
Duration : 6mn 45s
Overall bit rate : 9 717 Kbps

Video
ID : 224 (0xE0)
Format : MPEG-4 Visual
Format settings, BVOP : Yes
Format settings, QPel : No
Format settings, GMC : No warppoints
Format settings, Matrix : Default (H.263)
Duration : 6mn 45s
Bit rate : 9 139 Kbps
Color space : YUV
Bit depth : 7 bits
Scan type : Progressive
Compression mode : Lossy
Stream size : 442 MiB (94%)

Audio
ID : 189 (0xBD)-128 (0x80)
Format : AC-3
Format/Info : Audio Coding 3
Mode extension : CM (complete main)
Format settings, Endianness : Big
Muxing mode : DVD-Video
Duration : 6mn 45s
Bit rate mode : Constant
Bit rate : 384 Kbps
Channel(s) : 2 channels
Channel positions : Front: L R
Sampling rate : 48.0 KHz
Bit depth : 16 bits
Compression mode : Lossy
Delay relative to video : -171ms
Stream size : 18.6 MiB (4%)

Text
ID : 189 (0xBD)-32 (0x20)
Format : RLE
Format/Info : Run-length encoding
Muxing mode : DVD-Video
Duration : 6mn 45s
Delay relative to video : 240ms

Menu

Format:
PAL

Set List/Chapters:
interviews&videos

Checksums or Fingerprints:
Thumbs.db OK
PAL

Set List/Chapters:
interviews&videos

Checksums or Fingerprints:
# MD5 checksums generated by MD5summer (http://www.md5summer.org)
# Generated 09.10.2015 23:08:39

cc4e4c6b845ff90f356abd21ba8f3a26 *Aerosmith-Headbangers Ball 93.md5
32d3233d3bee12ba92463af52e74b776 *Thumbs.db
2c87f0100b28fe53a1fe70db474cf0e8 *VIDEO_TS.BUP
2c87f0100b28fe53a1fe70db474cf0e8 *VIDEO_TS.IFO
60b0cc2db486dbe745d82dfd05e13ddb *VIDEO_TS.VOB
6052d2c2baea0562a561e0943d04cba7 *VTS_01_0.BUP
6052d2c2baea0562a561e0943d04cba7 *VTS_01_0.IFO
f7ebdffb1adf579e8cce0378f5ebb86e *VTS_01_1.VOB
b94e21a99477e2fd17081b115e2201e2 *VTS_01_2.VOB
f009786ea2c172bcfb6e6514bee34e34 *VTS_01_3.VOB
b9d5433a3ea11b8831f4ab74dc72ea23 *VTS_01_4.VOB
b8dc14ea02144cf4ac497de2e1896a7d *VTS_01_5.VOB
0fa7e383667faa83320d1a6d411d9285 *VTS_01_6.VOB
66cdc0668f44a5bd501ecf21f5b0da9f *VTS_01_7.VOB
79f35082d40a13fd49307d37838bd470 *VTS_01_8.VOB
f36ec9225fd15df0978154c53c3ec063 *VTS_01_9.VOB

Attached Files
This post has an attachment which you could see if you were registered.

Last edited by Born Again; 10.10.15 at 01:10 AM.
  (#2) Old
SerialSon SerialSon is offline
Trader God


Join Date: 02.10.09
User ID: 34779
Posts: 1,394

Trader Rating: 0

Rate This Trader!



UL: 6.12 TB
DL: 5.59 TB
Ratio: 1.09
Seed Points: 39,779.60

Sharing Ratio
Policy


Torrent Thank You's: 0
Thanked Posts: 1,296

10.10.15, 06:12 PM

Thanks a lot!
  (#3) Old
Wrathchild Wrathchild is offline
Trader Supreme
 
Wrathchild's Avatar


Join Date: 03.18.08
User ID: 27544
Posts: 512

Trader Rating: 2

Rate This Trader!



UL: 2.86 TB
DL: 1.54 TB
Ratio: 1.85
Seed Points: 2,737.60

Sharing Ratio
Policy


Torrent Thank You's: 230
Thanked Posts: 310

10.10.15, 08:59 PM

Thanks a lot


For All Your Iron Maiden lossless bootlegs join Powerslaved
http://www.powerslaved.com/index.php
Closed Thread

Tags
1993, 93, aerosmith-headbangers, ball

Thread Tools
Display Modes

Posting Rules
You may not post new threads
You may not post replies
You may not post attachments
You may not edit your posts

BB code is On
Smilies are On
[IMG] code is On
HTML code is Off

Forum Jump

Similar Threads
Thread Thread Starter Forum Replies Last Post
my list of video/DVD to share melodicroads Trade Lists 71 07.25.17 02:16 PM
My bootleg list (asian bands a priority, but I like ALMOST everything) StarslayerJo Trade Lists 1 10.19.12 10:35 PM
DVD TRADE (jazz-soul-funk-rock) artyty Trade Lists 1 10.21.10 08:35 PM



3.jpg


Powered by vBulletin® Version 3.8.5
Copyright ©2000 - 2018, Jelsoft Enterprises Ltd.

WEB HOSTING: Hosting 4 Less

vB Forum Feeds by CinVin

Copyright © 2004-2017 JamToThis.com

vBulletin Skin developed by: vBStyles.com