JamToThis  
iTrader

Is your sharing ratio bad? Donate to our server costs and get upload credit!

Go Back   JamToThis > Bit Torrent Downloads > Video Bit Torrents

Closed Thread
 
Thread Tools Display Modes
  (#1) Old
Nono666 Nono666 is offline
Trader Supreme


Join Date: 02.16.11
User ID: 51785
Posts: 680

Trader Rating: 20

Rate This Trader!



UL: 1.37 TB
DL: 989.33 GB
Ratio: 1.42
Seed Points: 70,547.60

Sharing Ratio
Policy


Torrent Thank You's: 2,549
Thanked Posts: 250

HD - Pro Shot Lordi - Hellfest 2013 - 08.25.15, 02:26 PM

Artist:
Lordi

Show or Bootleg Title:
Hellfest 2013

Show Venue:
Clisson, France, 2013.06.23

Source:
HD - Pro Shot

Video Quality/Production Info:
A+ / PagArn Productions

Audio/Video Specs:
General
ID : 1 (0x1)
Complete name : Lordi - Hellfest 2013.m2ts
Format : BDAV
Format/Info : Blu-ray Video
File size : 2.51 GiB
Duration : 1h 3mn
Overall bit rate mode : Variable
Overall bit rate : 5 671 Kbps
Maximum Overall bit rate : 35.5 Mbps

Video
ID : 4113 (0x1011)
Menu ID : 1 (0x1)
Format : AVC
Format/Info : Advanced Video Codec
Format profile : Main@L4.0
Format settings, CABAC : Yes
Format settings, ReFrames : 4 frames
Codec ID : 27
Duration : 1h 3mn
Bit rate mode : Variable
Bit rate : 5 309 Kbps
Maximum bit rate : 40.0 Mbps
Width : 1 440 pixels
Height : 1 080 pixels
Display aspect ratio : 16:9
Frame rate : 25.000 fps
Standard : Component
Color space : YUV
Chroma subsampling : 4:2:0
Bit depth : 8 bits
Scan type : Interlaced
Scan order : Top Field First
Bits/(Pixel*Frame) : 0.137
Stream size : 2.35 GiB (94%)
Color primaries : BT.709-5, BT.1361, IEC 61966-2-4, SMPTE RP177
Transfer characteristics : BT.709-5, BT.1361
Matrix coefficients : BT.709-5, BT.1361, IEC 61966-2-4 709, SMPTE RP177

Audio #1
ID : 4352 (0x1100)
Menu ID : 1 (0x1)
Format : AAC
Format/Info : Advanced Audio Codec
Format version : Version 4
Format profile : HE-AAC / LC
Muxing mode : ADTS
Codec ID : 15
Duration : 1h 3mn
Bit rate mode : Constant / Variable / Variable
Bit rate : 63.4 Kbps
Minimum bit rate : 113 Kbps / 113 Kbps
Maximum bit rate : 171 Kbps / 171 Kbps
Channel(s) : 2 channels
Channel positions : Front: L R
Sampling rate : 48.0 KHz / 24.0 KHz
Compression mode : Lossy
Delay relative to video : -227ms
Stream size : 28.8 MiB (1%)
Language : French

Audio #2
ID : 4353 (0x1101)
Menu ID : 1 (0x1)
Format : AAC
Format/Info : Advanced Audio Codec
Format version : Version 4
Format profile : HE-AAC / LC
Muxing mode : ADTS
Codec ID : 15
Duration : 1h 3mn
Bit rate mode : Constant / Variable / Variable
Bit rate : 63.0 Kbps
Minimum bit rate : 109 Kbps / 109 Kbps
Maximum bit rate : 160 Kbps / 160 Kbps
Channel(s) : 2 channels
Channel positions : Front: L R
Sampling rate : 48.0 KHz / 24.0 KHz
Compression mode : Lossy
Delay relative to video : -226ms
Stream size : 28.6 MiB (1%)
Language : English

Format:
HD

Set List/Chapters:
01. We're Not Bad For The Kids
02. Bringing Back The Ball To Rock
03. The Riff
04. Who's Your Daddy ?
05. Blood Red Sandman
06. It Snows In Hell
07. Supermonstars
08. I'm The Best
09. They Only Come Out At Night
10. Devil Is A Loser
11. Hard Rock Hallelujah
12. Sincerely With Love
13. Would You Love A Monsterman ?

Checksums or Fingerprints:
# MD5 checksums generated by MD5summer (http://www.md5summer.org)
# Generated 07/08/2015 11:09:10

b82b5b2e14f8438c30f0d395f1c5b8ee *Lordi - Hellfest 2013.m2ts
41c3a0ff1d4a47058b10089c18bbab8a *Lordi.txt
97dfadcf47bd233049a3ae5ef33968d9 *Lordi_2013-06-23_ClissonFrance_DVD_1cover.jpg
0b93747c80859ce82e12ab37e0372b7b *Lordi_2013-06-23_ClissonFrance_DVD_3disc1.jpg

Lordi
2013-06-23
Hellfest, Clisson, France
(ProShot - M2TS files - HD)


Lineage :
D17 => Freebox => Hard disk => TSmuxer (to remove before / after show) => Dimeadozen
Recorded by PagArn / Nono03 on 2015.08.06

I checked on Internet and could not find any official release concerning this gig, nor any broadcast.
So I assume this is a ROIO !!

Artwork by iRock enclosed.

If someone wants to author these files onto a DVD, please feel free to do so and share @ JamToThis or elsewhere
(but do not forget to credit the taper)
A DVD version used to be available on The Pirate Bay.

Enjoy and share freely !!

PagArn / Nono03, August 2015
Attached Files
This post has an attachment which you could see if you were registered.
The Following 17 Members Thank Nono666 For This Torrent
Closed Thread

Tags
2013, hellfest, lordi

Thread Tools
Display Modes

Posting Rules
You may not post new threads
You may not post replies
You may not post attachments
You may not edit your posts

BB code is On
Smilies are On
[IMG] code is On
HTML code is Off

Forum Jump

Similar Threads
Thread Thread Starter Forum Replies Last Post
Bootlegs-Trade.ru saler Trade Lists 38 06.22.17 08:14 PM
joe_wsc's trade list joe_wsc Trade Lists 0 02.26.14 02:17 PM
2013 shows rknhrse Trade Lists 0 01.01.14 02:57 AM
LORDI: Pro-Shot Footage Of Entire HELLFEST Concert Rufus Rock News 0 07.18.13 06:03 AM
LORDI: Video Footage Of HELLFEST Press Conference Rufus Rock News 0 06.25.13 05:40 PM



5.jpg


Powered by vBulletin® Version 3.8.5
Copyright ©2000 - 2018, Jelsoft Enterprises Ltd.

WEB HOSTING: Hosting 4 Less

vB Forum Feeds by CinVin

Copyright © 2004-2018 JamToThis.com

vBulletin Skin developed by: vBStyles.com