JamToThis  
iTrader

Is your sharing ratio bad? Donate to our server costs and get upload credit!

Go Back   JamToThis > Bit Torrent Downloads > Video Bit Torrents

Closed Thread
 
Thread Tools Display Modes
  (#1) Old
MikeFury MikeFury is offline
Trader God
 
MikeFury's Avatar


Join Date: 02.16.10
User ID: 43739
Posts: 1,665
Location: Concepción, Chile

Trader Rating: 429

Rate This Trader!



UL: 5.02 TB
DL: 534.64 GB
Ratio: 9.61
Seed Points: 121,786.40

Sharing Ratio
Policy


Torrent Thank You's: 25,710
Thanked Posts: 579

Video - Audience Don Dokken - Live In Osaka (March 11th, 1991) - 02.04.13, 08:50 AM

Artist:
Don Dokken

Show or Bootleg Title:
Live In Osaka (March 11th, 1991)

Show Venue:
Festival Hall - Osaka, Japan

Source:
DVD - Audience

Video Quality/Production Info:
A- / Damage Inc. Classic Series / Metal Zone Productions

Audio/Video Specs:
Video
ID : 224 (0xE0)
Format : MPEG Video
Format version : Version 2
Format profile : Main@Main
Format settings, BVOP : Yes
Format settings, Matrix : Custom
Format settings, GOP : M=3, N=15
Bit rate : 9 586 Kbps
Width : 704 pixels
Height : 480 pixels
Display aspect ratio : 4:3
Frame rate : 29.970 fps
Standard : NTSC
Color space : YUV
Chroma subsampling : 4:2:0
Bit depth : 8 bits
Scan type : Interlaced
Scan order : Top Field First
Bits/(Pixel*Frame) : 0.947
Stream size : 977 MiB (95%)
Color primaries : SMPTE 170M
Transfer characteristics : SMPTE 170M
Matrix coefficients : SMPTE 170M

Audio
ID : 189 (0xBD)-128 (0x80)
Format : AC-3
Format/Info : Audio Coding 3
Mode extension : CM (complete main)
Format settings, Endianness : Big
Muxing mode : DVD-Video
Bit rate mode : Constant
Bit rate : 256 Kbps
Channel(s) : 2 channels
Channel positions : Front: L R
Sampling rate : 48.0 KHz
Bit depth : 16 bits

Format:
NTSC

Set List/Chapters:
INTRO
PARIS IS BURNING
GIVE IT UP
CRASH 'N BURN
THE HUNTER
WHEN LOVE FINDS A FOOL
IN MY DREAMS
IT'S NOT LOVE
BALLS TO THE WALL
IT'S NOT LOVE
MIKKEY DEE SOLO
DOWN IN FLAMES
NORUM & WHITE SOLO
DOWN IN FLAMES

ALONE AGAIN
DON DOKKEN SOLO
SLIPPIN' AWAY
ALONE AGAIN
STAY
INTO THE FIRE
BREAKING THE CHAINS
MIRROR MIRROR
1000 MILES AWAY
THE HUNGER

Checksums or Fingerprints:
Disc One

# MD5 checksums generated by MD5summer (http://www.md5summer.org)
# Generated 03/02/2013 21:29:51

c28faca43f983bc3835466ab9bf03c9c *VIDEO_TS/VIDEO_TS.VOB
57e6dbf1a0db10ca441523c2a48e7e5c *VIDEO_TS/VTS_01_0.VOB
a1e9b38ddfac09aa442600b456bb78e4 *VIDEO_TS/VTS_01_1.VOB
da2cc7025f66427defc8522967fb0187 *VIDEO_TS/VTS_01_2.VOB
b4b1cc07cca2be13bda4221532b8a176 *VIDEO_TS/VTS_01_3.VOB
b202d93fd053f597654d7d5a7a016b91 *VIDEO_TS/VTS_01_4.VOB
a2ea8e3f4bed5ad8e56dbcd40e918642 *VIDEO_TS/VTS_01_0.IFO
a2ea8e3f4bed5ad8e56dbcd40e918642 *VIDEO_TS/VTS_01_0.BUP
a60ed92cc9e68092cfb1ba5819561d08 *VIDEO_TS/VIDEO_TS.IFO
a60ed92cc9e68092cfb1ba5819561d08 *VIDEO_TS/VIDEO_TS.BUP
3e5cdf5ba8e2c1a41b58a6b616b49f0f *VTS_01_1.VOB_tn.jpg
a9782f85ef6f6c194998180a65002233 *VTS_01_2.VOB_tn.jpg
e0662280b7c4c34337e2709b58897573 *VTS_01_3.VOB_tn.jpg
59d5be19a2bb7223f7faaf2186421f8f *VTS_01_4.VOB_tn.jpg

Disc Two

# MD5 checksums generated by MD5summer (http://www.md5summer.org)
# Generated 03/02/2013 21:33:19

6761f573378f041c3c97ff57a5a73d67 *VIDEO_TS/VIDEO_TS.VOB
dbcac0faadd29ccff7179568c71274c1 *VIDEO_TS/VTS_01_0.VOB
bf07d2878523f9804c460f09fb11c2ae *VIDEO_TS/VTS_01_1.VOB
9af226c104ff05dbfb7f046772cd6135 *VIDEO_TS/VTS_01_2.VOB
fdbf94e3e9fde98e46a5fbfa99ac5340 *VIDEO_TS/VTS_01_3.VOB
655841d8c160b4cc9faf2384ae91289b *VIDEO_TS/VTS_01_4.VOB
03039a6501afd7e22d6999e0a23fc38d *VIDEO_TS/VTS_01_0.IFO
03039a6501afd7e22d6999e0a23fc38d *VIDEO_TS/VTS_01_0.BUP
080d2784981a2330c2ef1e8e5b26db41 *VIDEO_TS/VIDEO_TS.IFO
080d2784981a2330c2ef1e8e5b26db41 *VIDEO_TS/VIDEO_TS.BUP
c03ba705af4ef13c7936423cfae090ae *VTS_01_1.VOB_tn.jpg
97fe52b17762190b7e0e9718561e38ff *VTS_01_2.VOB_tn.jpg
64b17e491441a0f7f66c2a318f963cbd *VTS_01_3.VOB_tn.jpg
0af024cf5087942cb9ec0763d5c62835 *VTS_01_4.VOB_tn.jpg

Menu: Yes
Chapters: Yes
Artwork: Yes





Requested by powerdug, riginally uploaded by dokkendude.
If you like this DVD, RATE YOUR SEEDER.
Attached Images
This post has an attachment which you could see if you were registered.
This post has an attachment which you could see if you were registered.
This post has an attachment which you could see if you were registered.
This post has an attachment which you could see if you were registered.
Attached Files
This post has an attachment which you could see if you were registered.


See my Trade List here
concebootlegs.webs.com

The Following 125 Members Thank MikeFury For This Torrent
555678, acdc7, anrata, Australou, AXE, badname, bbstixxx, Belgarion, benuto, bill007, blazer1, Bulueblood, catalinabelechile, category5drummer, cejee, chiro70, chompydude, Cliff1986, dannoguy, DD1996, diegobruning, Dokken-Rokken, eddiemonster, Enekes, enetic, europekee, fabrod919, feelsobadd, fernandoklock, flavia, freddieg, friedel, gillen65, gorand, Gregmanimal, Greylord72, hacker_juan, heath21, HMDAZE, hollywoodsickfreak, hotlicks, hrgiger, ImNraged, io_jim15, ItchMySack, jack leventreur, jam_to_this_2014, janildodw900, jayceman, JDog, JEFFALLEN, jekke, jessihart, JLande, Johnnorum1, jsalazar, jsand0101, jun7777, justinpeters, killer_8186, kissfan2014, klaasvaker, lee670, LefDeppard, lemmy65, liehowar, liquidfloater, luizgabriel, Magnetic Void, marcelolusa, marydoug, mastardo, McDaler, melodic, Metal Asylum, metal-head, metalboy99, mickeylee, miguelzw, mikus666, Morrison38, mrkotsk, NEONBLACK, NewtonRaphson, ojotigre1972, oralfx, pablobonjovi, Patoma, paulricards, Peperino, peter-rock, purplius, redgil, REMUSTOICA, retarderman, riktur, robbiehul, rushdude, Satanik Circus, schmoker, semalf, smileystv, speedstar, Starchild2112, Steeler77, stevelee, Sunburst, super-igoryok, takdir.makassar, tamacorochan, thecat18, Thomas88, tommysano, trifko633, Uforia, urfold, VIRTUAL3D, Wicasa Wakan, wickdlester, Wounded.Leg, wwetzels, wyrmling, yellowpearl, yuri, zurso
  (#2) Old
MikeFury MikeFury is offline
Trader God
 
MikeFury's Avatar


Join Date: 02.16.10
User ID: 43739
Posts: 1,665
Location: Concepción, Chile

Trader Rating: 429

Rate This Trader!



UL: 5.02 TB
DL: 534.64 GB
Ratio: 9.61
Seed Points: 121,786.40

Sharing Ratio
Policy


Torrent Thank You's: 25,710
Thanked Posts: 579

02.04.13, 08:52 AM

more screenshots
Attached Images
This post has an attachment which you could see if you were registered.
This post has an attachment which you could see if you were registered.
This post has an attachment which you could see if you were registered.
This post has an attachment which you could see if you were registered.


See my Trade List here
concebootlegs.webs.com

  (#3) Old
judaschilepriest judaschilepriest is offline
Rookie


Join Date: 12.19.12
User ID: 63557
Posts: 19

Trader Rating: 0

Rate This Trader!



UL: 6.77 GB
DL: 43.94 GB
Ratio: 0.15
Seed Points: 384.80

Sharing Ratio
Policy


Torrent Thank You's: 0
Thanked Posts: 16

02.04.13, 09:41 AM

THANKS SO SO MUCH!!!!!
  (#4) Old
dokkendude dokkendude is offline
Moderator
 
dokkendude's Avatar


Join Date: 01.19.05
User ID: 1757
Posts: 3,620

Trader Rating: 414

Rate This Trader!



UL: 2.94 TB
DL: 2.03 TB
Ratio: 1.44
Seed Points: 1,786.80

Sharing Ratio
Policy


Torrent Thank You's: 7,511
Thanked Posts: 311

02.04.13, 10:25 AM

Kick ass show!
  (#5) Old
mikus666 mikus666 is offline
Trader Supreme
 
mikus666's Avatar


Join Date: 09.20.08
User ID: 31191
Posts: 566

Trader Rating: 0

Rate This Trader!



UL: 1.49 TB
DL: 1.33 TB
Ratio: 1.12
Seed Points: 95,929.60

Sharing Ratio
Policy


Torrent Thank You's: 0
Thanked Posts: 398

02.04.13, 11:06 AM

Thanks heaps, didn't realise I didn't have this on DVD. VHS version.
  (#6) Old
jekke jekke is offline
Trader God


Join Date: 07.27.08
User ID: 30294
Posts: 1,276

Trader Rating: 7

Rate This Trader!



UL: 15.98 TB
DL: 3.48 TB
Ratio: 4.59
Seed Points: 22,077.20

Sharing Ratio
Policy


Torrent Thank You's: 392
Thanked Posts: 1,148

02.04.13, 12:23 PM

This is a great one - I got this, but have some issuses on my DVD - thank you for sharing this
  (#7) Old
anrata anrata is offline
Trader God


Join Date: 10.06.06
User ID: 13386
Posts: 996

Trader Rating: 0

Rate This Trader!



UL: 664.63 GB
DL: 836.98 GB
Ratio: 0.79
Seed Points: 8,712.40

Sharing Ratio
Policy


Torrent Thank You's: 0
Thanked Posts: 480

02.04.13, 12:33 PM

thnks
  (#8) Old
benuto benuto is offline
Trader God


Join Date: 11.21.09
User ID: 41940
Posts: 876

Trader Rating: 0

Rate This Trader!



UL: 1.13 TB
DL: 1.42 TB
Ratio: 0.79
Seed Points: 556,418.20

Sharing Ratio
Policy


Torrent Thank You's: 192
Thanked Posts: 440

02.04.13, 12:46 PM

  (#9) Old
friedel friedel is offline
Trader Supreme


Join Date: 11.26.08
User ID: 32455
Posts: 327

Trader Rating: 3

Rate This Trader!



UL: 353.91 GB
DL: 339.92 GB
Ratio: 1.04
Seed Points: 25,682.80

Sharing Ratio
Policy


Torrent Thank You's: 168
Thanked Posts: 227

02.04.13, 02:30 PM

THX a lot.
  (#10) Old
Patoma Patoma is offline
Trader


Join Date: 08.09.09
User ID: 39721
Posts: 382

Trader Rating: 0

Rate This Trader!



UL: 972.61 MB
DL: 26.78 GB
Ratio: 0.04
Seed Points: 5.80

Sharing Ratio
Policy


Torrent Thank You's: 0
Thanked Posts: 323

02.04.13, 02:30 PM

Super Años 80!!!!!!
  (#11) Old
yellowpearl yellowpearl is offline
Trader Supreme
 
yellowpearl's Avatar


Join Date: 12.11.09
User ID: 42319
Posts: 267

Trader Rating: 13

Rate This Trader!



UL: 0.98 TB
DL: 345.77 GB
Ratio: 2.90
Seed Points: 8,540.80

Sharing Ratio
Policy


Torrent Thank You's: 915
Thanked Posts: 137

02.04.13, 03:10 PM

Thanks for sharing.
  (#12) Old
fabrod919 fabrod919 is offline
Trader God


Join Date: 07.07.06
User ID: 11796
Posts: 2,368

Trader Rating: 0

Rate This Trader!



UL: 11.60 TB
DL: 5.24 TB
Ratio: 2.21
Seed Points: 695,029.20

Sharing Ratio
Policy


Torrent Thank You's: 0
Thanked Posts: 1,390

02.04.13, 04:09 PM

thank you for the upload
  (#13) Old
wwetzels wwetzels is offline
Trader Supreme
 
wwetzels's Avatar


Join Date: 11.14.05
User ID: 6646
Posts: 315

Trader Rating: 4

Rate This Trader!



UL: 1.58 TB
DL: 931.43 GB
Ratio: 1.73
Seed Points: 2,568.60

Sharing Ratio
Policy


Torrent Thank You's: 0
Thanked Posts: 178

02.05.13, 01:15 AM

Thanks for this one
  (#14) Old
ojotigre1972 ojotigre1972 is offline
Trader God
 
ojotigre1972's Avatar


Join Date: 09.19.11
User ID: 55812
Posts: 2,078

Trader Rating: 64

Rate This Trader!



UL: 4.29 TB
DL: 2.51 TB
Ratio: 1.71
Seed Points: 76,692.60

Sharing Ratio
Policy


Torrent Thank You's: 5,129
Thanked Posts: 1,108

02.05.13, 03:50 AM

Thanks, gracias Mike
  (#15) Old
urfold urfold is offline
We Came To Rock
 
urfold's Avatar


Join Date: 09.03.09
User ID: 40325
Posts: 4,256
Location: Pandemonium

Trader Rating: 278

Rate This Trader!



UL: 12.37 TB
DL: 7.63 TB
Ratio: 1.62
Seed Points: 726,419.60

Sharing Ratio
Policy


Torrent Thank You's: 14,277
Thanked Posts: 2,065

02.05.13, 04:08 AM

Great show, great singer, thx so much for this upload
  (#16) Old
JEFFALLEN JEFFALLEN is offline
Trader


Join Date: 01.30.13
User ID: 64111
Posts: 80

Trader Rating: 0

Rate This Trader!



UL: 27.58 GB
DL: 108.98 GB
Ratio: 0.25
Seed Points: 34.20

Sharing Ratio
Policy


Torrent Thank You's: 4
Thanked Posts: 44

02.05.13, 04:19 PM

  (#17) Old
Metal Asylum Metal Asylum is offline
Trader God
 
Metal Asylum's Avatar


Join Date: 05.16.10
User ID: 45488
Posts: 1,150

Trader Rating: 0

Rate This Trader!



UL: 3.28 TB
DL: 1.92 TB
Ratio: 1.71
Seed Points: 235,134.20

Sharing Ratio
Policy


Torrent Thank You's: 0
Thanked Posts: 599

02.05.13, 06:22 PM

Mondo Thanks!!
  (#18) Old
VIRTUAL3D VIRTUAL3D is offline
Rookie


Join Date: 02.06.13
User ID: 64212
Posts: 6

Trader Rating: 0

Rate This Trader!



UL: 23.44 GB
DL: 15.51 GB
Ratio: 1.51
Seed Points: 14.80

Sharing Ratio
Policy


Torrent Thank You's: 0
Thanked Posts: 5

02.06.13, 04:46 PM

thanks!!!!



Quote:
Originally Posted by MikeFury View Post
Artist:
Don Dokken

Show or Bootleg Title:
Live In Osaka (March 11th, 1991)

Show Venue:
Festival Hall - Osaka, Japan

Source:
DVD - Audience

Video Quality/Production Info:
A- / Damage Inc. Classic Series / Metal Zone Productions

Audio/Video Specs:
Video
ID : 224 (0xE0)
Format : MPEG Video
Format version : Version 2
Format profile : Main@Main
Format settings, BVOP : Yes
Format settings, Matrix : Custom
Format settings, GOP : M=3, N=15
Bit rate : 9 586 Kbps
Width : 704 pixels
Height : 480 pixels
Display aspect ratio : 4:3
Frame rate : 29.970 fps
Standard : NTSC
Color space : YUV
Chroma subsampling : 4:2:0
Bit depth : 8 bits
Scan type : Interlaced
Scan order : Top Field First
Bits/(Pixel*Frame) : 0.947
Stream size : 977 MiB (95%)
Color primaries : SMPTE 170M
Transfer characteristics : SMPTE 170M
Matrix coefficients : SMPTE 170M

Audio
ID : 189 (0xBD)-128 (0x80)
Format : AC-3
Format/Info : Audio Coding 3
Mode extension : CM (complete main)
Format settings, Endianness : Big
Muxing mode : DVD-Video
Bit rate mode : Constant
Bit rate : 256 Kbps
Channel(s) : 2 channels
Channel positions : Front: L R
Sampling rate : 48.0 KHz
Bit depth : 16 bits

Format:
NTSC

Set List/Chapters:
INTRO
PARIS IS BURNING
GIVE IT UP
CRASH 'N BURN
THE HUNTER
WHEN LOVE FINDS A FOOL
IN MY DREAMS
IT'S NOT LOVE
BALLS TO THE WALL
IT'S NOT LOVE
MIKKEY DEE SOLO
DOWN IN FLAMES
NORUM & WHITE SOLO
DOWN IN FLAMES

ALONE AGAIN
DON DOKKEN SOLO
SLIPPIN' AWAY
ALONE AGAIN
STAY
INTO THE FIRE
BREAKING THE CHAINS
MIRROR MIRROR
1000 MILES AWAY
THE HUNGER

Checksums or Fingerprints:
Disc One

# MD5 checksums generated by MD5summer (http://www.md5summer.org)
# Generated 03/02/2013 21:29:51

c28faca43f983bc3835466ab9bf03c9c *VIDEO_TS/VIDEO_TS.VOB
57e6dbf1a0db10ca441523c2a48e7e5c *VIDEO_TS/VTS_01_0.VOB
a1e9b38ddfac09aa442600b456bb78e4 *VIDEO_TS/VTS_01_1.VOB
da2cc7025f66427defc8522967fb0187 *VIDEO_TS/VTS_01_2.VOB
b4b1cc07cca2be13bda4221532b8a176 *VIDEO_TS/VTS_01_3.VOB
b202d93fd053f597654d7d5a7a016b91 *VIDEO_TS/VTS_01_4.VOB
a2ea8e3f4bed5ad8e56dbcd40e918642 *VIDEO_TS/VTS_01_0.IFO
a2ea8e3f4bed5ad8e56dbcd40e918642 *VIDEO_TS/VTS_01_0.BUP
a60ed92cc9e68092cfb1ba5819561d08 *VIDEO_TS/VIDEO_TS.IFO
a60ed92cc9e68092cfb1ba5819561d08 *VIDEO_TS/VIDEO_TS.BUP
3e5cdf5ba8e2c1a41b58a6b616b49f0f *VTS_01_1.VOB_tn.jpg
a9782f85ef6f6c194998180a65002233 *VTS_01_2.VOB_tn.jpg
e0662280b7c4c34337e2709b58897573 *VTS_01_3.VOB_tn.jpg
59d5be19a2bb7223f7faaf2186421f8f *VTS_01_4.VOB_tn.jpg

Disc Two

# MD5 checksums generated by MD5summer (http://www.md5summer.org)
# Generated 03/02/2013 21:33:19

6761f573378f041c3c97ff57a5a73d67 *VIDEO_TS/VIDEO_TS.VOB
dbcac0faadd29ccff7179568c71274c1 *VIDEO_TS/VTS_01_0.VOB
bf07d2878523f9804c460f09fb11c2ae *VIDEO_TS/VTS_01_1.VOB
9af226c104ff05dbfb7f046772cd6135 *VIDEO_TS/VTS_01_2.VOB
fdbf94e3e9fde98e46a5fbfa99ac5340 *VIDEO_TS/VTS_01_3.VOB
655841d8c160b4cc9faf2384ae91289b *VIDEO_TS/VTS_01_4.VOB
03039a6501afd7e22d6999e0a23fc38d *VIDEO_TS/VTS_01_0.IFO
03039a6501afd7e22d6999e0a23fc38d *VIDEO_TS/VTS_01_0.BUP
080d2784981a2330c2ef1e8e5b26db41 *VIDEO_TS/VIDEO_TS.IFO
080d2784981a2330c2ef1e8e5b26db41 *VIDEO_TS/VIDEO_TS.BUP
c03ba705af4ef13c7936423cfae090ae *VTS_01_1.VOB_tn.jpg
97fe52b17762190b7e0e9718561e38ff *VTS_01_2.VOB_tn.jpg
64b17e491441a0f7f66c2a318f963cbd *VTS_01_3.VOB_tn.jpg
0af024cf5087942cb9ec0763d5c62835 *VTS_01_4.VOB_tn.jpg

Menu: Yes
Chapters: Yes
Artwork: Yes





Requested by powerdug, riginally uploaded by dokkendude.
If you like this DVD, RATE YOUR SEEDER.
  (#19) Old
heath21 heath21 is offline
Rock Brigade
 
heath21's Avatar


Join Date: 03.04.09
User ID: 35491
Posts: 124

Trader Rating: 0

Rate This Trader!



UL: 1.61 TB
DL: 231.20 GB
Ratio: 7.14
Seed Points: 69,624.80

Sharing Ratio
Policy


Torrent Thank You's: 0
Thanked Posts: 71

02.06.13, 10:46 PM

Thanks for puting up, been wanting one from this tour/album!!
Closed Thread

Tags
11th, 1991, dokken, don, live, march, osaka

Thread Tools
Display Modes

Posting Rules
You may not post new threads
You may not post replies
You may not post attachments
You may not edit your posts

BB code is On
Smilies are On
[IMG] code is On
HTML code is Off

Forum Jump

Similar Threads
Thread Thread Starter Forum Replies Last Post
my list of video/DVD to share melodicroads Trade Lists 71 07.25.17 03:16 PM
Looking for traders maguirre Trade Lists 10 03.04.11 04:56 PM
HI there Always Looking to Trade diamondmedia1 Trade Lists 40 09.22.10 08:58 AM



4.jpg


Powered by vBulletin® Version 3.8.5
Copyright ©2000 - 2017, Jelsoft Enterprises Ltd.

WEB HOSTING: Hosting 4 Less

vB Forum Feeds by CinVin

Copyright © 2004-2017 JamToThis.com

vBulletin Skin developed by: vBStyles.com