JamToThis  
iTrader

Is your sharing ratio bad? Donate to our server costs and get upload credit!

Go Back   JamToThis > Bit Torrent Downloads > Video Bit Torrents

Closed Thread
 
Thread Tools Display Modes
  (#1) Old
kite kite is offline
Moderator
 
kite's Avatar


Join Date: 11.03.06
User ID: 13825
Posts: 1,097
Location: Manhattan aan de Maas

Trader Rating: 160

Rate This Trader!



UL: 1.26 TB
DL: 362.10 GB
Ratio: 3.57
Seed Points: 11,519.20

Sharing Ratio
Policy


Torrent Thank You's: 5,106
Thanked Posts: 55

Video - Audience Stevie Nicks - The Spectrum - 08.04.12, 12:25 AM

Artist:
Stevie Nicks

Show or Bootleg Title:
The Spectrum

Show Venue:
Philadelphia July 26th 1991

Source:
DVD - Audience

Video Quality/Production Info:
B+

Audio/Video Specs:
Audio / vid spec's

General
Complete name : DVD_VIDEO_RECORDER/VIDEO_TS/VIDEO_TS.BUP
Format : DVD Video
Format profile : Menu
File size : 12.0 KiB
Overall bit rate mode : Variable

Video
ID : 224 (0xE0)
Format : MPEG Video
Format version : Version 2
Bit rate mode : Variable
Width : 720 pixels
Height : 480 pixels
Display aspect ratio : 4:3
Frame rate : 29.970 fps
Standard : NTSC
Compression mode : Lossy

Text
Format : RLE
Format/Info : Run-length encoding
Bit depth : 2 bits

General
Complete name : DVD_VIDEO_RECORDER/VIDEO_TS/VIDEO_TS.IFO
Format : DVD Video
Format profile : Menu
File size : 12.0 KiB
Overall bit rate mode : Variable

Video
ID : 224 (0xE0)
Format : MPEG Video
Format version : Version 2
Bit rate mode : Variable
Width : 720 pixels
Height : 480 pixels
Display aspect ratio : 4:3
Frame rate : 29.970 fps
Standard : NTSC
Compression mode : Lossy

Text
Format : RLE
Format/Info : Run-length encoding
Bit depth : 2 bits

General
Complete name : DVD_VIDEO_RECORDER/VIDEO_TS/VIDEO_TS.VOB
Format : MPEG-PS
File size : 36.0 KiB
Duration : 33ms
Overall bit rate mode : Variable
Overall bit rate : 8 937 Kbps

Video
ID : 224 (0xE0)
Format : MPEG Video
Format version : Version 2
Format profile : Main@Main
Format settings, BVOP : No
Format settings, Matrix : Custom
Duration : 33ms
Bit rate mode : Variable
Maximum bit rate : 4 587 Kbps
Width : 720 pixels
Height : 480 pixels
Display aspect ratio : 4:3
Frame rate : 29.970 fps
Standard : NTSC
Color space : YUV
Chroma subsampling : 4:2:0
Bit depth : 8 bits
Scan type : Progressive
Scan order : Top Field First
Compression mode : Lossy
Color primaries : SMPTE 170M
Transfer characteristics : SMPTE 170M
Matrix coefficients : SMPTE 170M

Text
ID : 189 (0xBD)-32 (0x20)
Format : RLE
Format/Info : Run-length encoding
Muxing mode : DVD-Video

Menu

General
Complete name : DVD_VIDEO_RECORDER/VIDEO_TS/VTS_01_0.BUP
Format : DVD Video
Format profile : Program
File size : 72.0 KiB
Duration : 1h 40mn
Overall bit rate mode : Variable
Overall bit rate : 98 bps

Video
ID : 224 (0xE0)
Format : MPEG Video
Format version : Version 2
Duration : 1h 40mn
Bit rate mode : Variable
Width : 704 pixels
Height : 480 pixels
Display aspect ratio : 4:3
Frame rate : 29.970 fps
Standard : NTSC
Compression mode : Lossy

Audio
ID : 128 (0x80)
Format : AC-3
Format/Info : Audio Coding 3
Duration : 1h 40mn
Channel(s) : 2 channels
Sampling rate : 48.0 KHz
Compression mode : Lossy

Menu #1
Duration : 1h 40mn
00:00:00.000 : Chapter 1
00:05:32.000 : Chapter 2
00:10:40.000 : Chapter 3
00:16:04.000 : Chapter 4
00:21:39.000 : Chapter 5
00:27:03.000 : Chapter 6
00:32:12.500 : Chapter 7
00:37:32.000 : Chapter 8
00:42:42.500 : Chapter 9
00:48:12.000 : Chapter 10
00:53:04.000 : Chapter 11
00:58:24.000 : Chapter 12
01:04:10.000 : Chapter 13
01:09:36.000 : Chapter 14
01:14:48.500 : Chapter 15
01:19:49.500 : Chapter 16
01:25:29.500 : Chapter 17
01:30:37.000 : Chapter 18
01:35:50.500 : Chapter 19
List (Audio) : 0

Menu #2

General
Complete name : DVD_VIDEO_RECORDER/VIDEO_TS/VTS_01_0.IFO
Format : DVD Video
Format profile : Program
File size : 72.0 KiB
Duration : 1h 40mn
Overall bit rate mode : Variable
Overall bit rate : 98 bps

Video
ID : 224 (0xE0)
Format : MPEG Video
Format version : Version 2
Duration : 1h 40mn
Bit rate mode : Variable
Width : 704 pixels
Height : 480 pixels
Display aspect ratio : 4:3
Frame rate : 29.970 fps
Standard : NTSC
Compression mode : Lossy

Audio
ID : 128 (0x80)
Format : AC-3
Format/Info : Audio Coding 3
Duration : 1h 40mn
Channel(s) : 2 channels
Sampling rate : 48.0 KHz
Compression mode : Lossy

Menu #1
Duration : 1h 40mn
00:00:00.000 : Chapter 1
00:05:32.000 : Chapter 2
00:10:40.000 : Chapter 3
00:16:04.000 : Chapter 4
00:21:39.000 : Chapter 5
00:27:03.000 : Chapter 6
00:32:12.500 : Chapter 7
00:37:32.000 : Chapter 8
00:42:42.500 : Chapter 9
00:48:12.000 : Chapter 10
00:53:04.000 : Chapter 11
00:58:24.000 : Chapter 12
01:04:10.000 : Chapter 13
01:09:36.000 : Chapter 14
01:14:48.500 : Chapter 15
01:19:49.500 : Chapter 16
01:25:29.500 : Chapter 17
01:30:37.000 : Chapter 18
01:35:50.500 : Chapter 19
List (Audio) : 0

Menu #2

General
Complete name : DVD_VIDEO_RECORDER/VIDEO_TS/VTS_01_1.VOB
Format : MPEG-PS
File size : 1 023 MiB
Duration : 30s 668ms
Overall bit rate mode : Variable
Overall bit rate : 280 Mbps

Video
ID : 224 (0xE0)
Format : MPEG Video
Format version : Version 2
Format profile : Main@Main
Format settings, BVOP : Yes
Format settings, Matrix : Custom
Format settings, GOP : M=3, N=15
Duration : 30s 668ms
Bit rate mode : Variable
Bit rate : 274 Mbps
Maximum bit rate : 9 586 Kbps
Width : 704 pixels
Height : 480 pixels
Display aspect ratio : 4:3
Frame rate : 29.970 fps
Standard : NTSC
Color space : YUV
Chroma subsampling : 4:2:0
Bit depth : 8 bits
Scan type : Interlaced
Scan order : Top Field First
Compression mode : Lossy
Bits/(Pixel*Frame) : 27.067
Stream size : 1 002 MiB (98%)
Color primaries : SMPTE 170M
Transfer characteristics : SMPTE 170M
Matrix coefficients : SMPTE 170M

Audio
ID : 189 (0xBD)-128 (0x80)
Format : AC-3
Format/Info : Audio Coding 3
Mode extension : CM (complete main)
Format settings, Endianness : Big
Muxing mode : DVD-Video
Duration : 9s 482ms
Bit rate mode : Constant
Bit rate : 256 Kbps
Channel(s) : 2 channels
Channel positions : Front: L R
Sampling rate : 48.0 KHz
Bit depth : 16 bits
Compression mode : Lossy
Delay relative to video : -67ms
Stream size : 296 KiB (0%)

Menu

General
Complete name : DVD_VIDEO_RECORDER/VIDEO_TS/VTS_01_2.VOB
Format : MPEG-PS
File size : 1 023 MiB
Duration : 21s 994ms
Overall bit rate mode : Variable
Overall bit rate : 390 Mbps

Video
ID : 224 (0xE0)
Format : MPEG Video
Format version : Version 2
Format profile : Main@Main
Format settings, BVOP : Yes
Format settings, Matrix : Custom
Format settings, GOP : M=3, N=15
Duration : 21s 994ms
Bit rate mode : Variable
Bit rate : 382 Mbps
Maximum bit rate : 9 586 Kbps
Width : 704 pixels
Height : 480 pixels
Display aspect ratio : 4:3
Frame rate : 29.970 fps
Standard : NTSC
Color space : YUV
Chroma subsampling : 4:2:0
Bit depth : 8 bits
Scan type : Interlaced
Scan order : Top Field First
Compression mode : Lossy
Bits/(Pixel*Frame) : 37.751
Stream size : 1 002 MiB (98%)
Color primaries : SMPTE 170M
Transfer characteristics : SMPTE 170M
Matrix coefficients : SMPTE 170M

Audio
ID : 189 (0xBD)-128 (0x80)
Format : AC-3
Format/Info : Audio Coding 3
Mode extension : CM (complete main)
Format settings, Endianness : Big
Muxing mode : DVD-Video
Duration : 14s 674ms
Bit rate mode : Constant
Bit rate : 256 Kbps
Channel(s) : 2 channels
Channel positions : Front: L R
Sampling rate : 48.0 KHz
Bit depth : 16 bits
Compression mode : Lossy
Delay relative to video : -393ms
Stream size : 459 KiB (0%)

Menu

General
Complete name : DVD_VIDEO_RECORDER/VIDEO_TS/VTS_01_3.VOB
Format : MPEG-PS
File size : 1 023 MiB
Duration : 8s 378ms
Overall bit rate mode : Variable
Overall bit rate : 1 025 Mbps

Video
ID : 224 (0xE0)
Format : MPEG Video
Format version : Version 2
Format profile : Main@Main
Format settings, BVOP : Yes
Format settings, Matrix : Custom
Format settings, GOP : M=3, N=15
Duration : 8s 378ms
Bit rate mode : Variable
Bit rate : 1 004 Mbps
Maximum bit rate : 9 586 Kbps
Width : 704 pixels
Height : 480 pixels
Display aspect ratio : 4:3
Frame rate : 29.970 fps
Standard : NTSC
Color space : YUV
Chroma subsampling : 4:2:0
Bit depth : 8 bits
Scan type : Interlaced
Scan order : Top Field First
Compression mode : Lossy
Bits/(Pixel*Frame) : 99.146
Stream size : 1 002 MiB (98%)
Color primaries : SMPTE 170M
Transfer characteristics : SMPTE 170M
Matrix coefficients : SMPTE 170M

Audio
ID : 189 (0xBD)-128 (0x80)
Format : AC-3
Format/Info : Audio Coding 3
Mode extension : CM (complete main)
Format settings, Endianness : Big
Muxing mode : DVD-Video
Duration : 8s 378ms
Bit rate mode : Constant
Bit rate : 256 Kbps
Channel(s) : 2 channels
Channel positions : Front: L R
Sampling rate : 48.0 KHz
Bit depth : 16 bits
Compression mode : Lossy
Delay relative to video : -340ms
Stream size : 262 KiB (0%)

Menu

General
Complete name :

DVD_VIDEO_RECORDER/VIDEO_TS/VTS_01_4.VOB
Format : MPEG-PS
File size : 350 MiB
Duration : 27s 359ms
Overall bit rate mode : Variable
Overall bit rate : 107 Mbps

Video
ID : 224 (0xE0)
Format : MPEG Video
Format version : Version 2
Format profile : Main@Main
Format settings, BVOP : Yes
Format settings, Matrix : Custom
Format settings, GOP : M=3, N=15
Duration : 27s 359ms
Bit rate mode : Variable
Bit rate : 105 Mbps
Maximum bit rate : 9 586 Kbps
Width : 704 pixels
Height : 480 pixels
Display aspect ratio : 4:3
Frame rate : 29.970 fps
Standard : NTSC
Color space : YUV
Chroma subsampling : 4:2:0
Bit depth : 8 bits
Scan type : Interlaced
Scan order : Top Field First
Compression mode : Lossy
Bits/(Pixel*Frame) : 10.366
Stream size : 342 MiB (98%)
Color primaries : SMPTE 170M
Transfer characteristics : SMPTE 170M
Matrix coefficients : SMPTE 170M

Audio
ID : 189 (0xBD)-128 (0x80)
Format : AC-3
Format/Info : Audio Coding 3
Mode extension : CM (complete main)
Format settings, Endianness : Big
Muxing mode : DVD-Video
Duration : 7s 56ms
Bit rate mode : Constant
Bit rate : 256 Kbps
Channel(s) : 2 channels
Channel positions : Front: L R
Sampling rate : 48.0 KHz
Bit depth : 16 bits
Compression mode : Lossy
Delay relative to video : -349ms
Stream size : 220 KiB (0%)

Menu

Format:
NTSC

Set List/Chapters:
Setlist ( Taken from the web)

Outside The Rain
Dreams
I Need to Know
Talk To Me
Beauty & The Beast
Stop Draggin' My Heart Around
Rooms On Fire
If Anyone Falls
Drum Solo
Stand Back
Whole Lotta Trouble
Band Intros
Has Anyone Ever Written Anything For You
Edge of Seventeen
Rhiannon
Landslide

Checksums or Fingerprints:
Created with Arch Linux
July 21th 2012

ba2ac4888deb4e1eb907fa45fd0e5a39 ./VIDEO_TS.BUP
ba2ac4888deb4e1eb907fa45fd0e5a39 ./VIDEO_TS.IFO
5999f620292ea7eefea1c3e77c2bf4e8 ./VIDEO_TS.VOB
04b9131692d180466d4c2c23e75b46c9 ./VTS_01_0.BUP
04b9131692d180466d4c2c23e75b46c9 ./VTS_01_0.IFO
ad7a0953e01194402cbc5e11a0e2e05c ./VTS_01_1.VOB
0968f3c1a573c5109b55354b2d003c8a ./VTS_01_2.VOB
c203ba9785376e6dbf688f28febaca90 ./VTS_01_3.VOB
81724092927af30c596bf9d3fe3b4626 ./VTS_01_4.VOB

Got it in a trade nice filmed for the time
Attached Files
This post has an attachment which you could see if you were registered.


I know I live in my own world, but that does not matter because they know me there




http://www.irixos.nl/kt/
  (#2) Old
dokkendude dokkendude is offline
Moderator
 
dokkendude's Avatar


Join Date: 01.19.05
User ID: 1757
Posts: 3,620

Trader Rating: 414

Rate This Trader!



UL: 2.94 TB
DL: 2.03 TB
Ratio: 1.44
Seed Points: 1,786.80

Sharing Ratio
Policy


Torrent Thank You's: 7,537
Thanked Posts: 311

08.04.12, 06:10 AM

thats alotta a/v specs!
  (#3) Old
kite kite is offline
Moderator
 
kite's Avatar


Join Date: 11.03.06
User ID: 13825
Posts: 1,097
Location: Manhattan aan de Maas

Trader Rating: 160

Rate This Trader!



UL: 1.26 TB
DL: 362.10 GB
Ratio: 3.57
Seed Points: 11,519.20

Sharing Ratio
Policy


Torrent Thank You's: 5,106
Thanked Posts: 55

08.04.12, 06:20 AM

Quote:
Originally Posted by dokkendude View Post
thats alotta a/v specs!
you can't say i miss them


I know I live in my own world, but that does not matter because they know me there




http://www.irixos.nl/kt/
  (#4) Old
126c2 126c2 is offline
Trader


Join Date: 01.31.07
User ID: 15468
Posts: 176

Trader Rating: 0

Rate This Trader!



UL: 756.65 GB
DL: 496.41 GB
Ratio: 1.52
Seed Points: 506.60

Sharing Ratio
Policy


Torrent Thank You's: 0
Thanked Posts: 70

08.07.12, 06:25 AM

Thank you very much, I love Stevie!!
Closed Thread

Tags
nicks, spectrum, stevie

Thread Tools
Display Modes

Posting Rules
You may not post new threads
You may not post replies
You may not post attachments
You may not edit your posts

BB code is On
Smilies are On
[IMG] code is On
HTML code is Off

Forum Jump

Similar Threads
Thread Thread Starter Forum Replies Last Post
Trade List mystereo Trade Lists 67 12.28.17 01:53 AM
Stevie Nicks - Stevie Nicks, Jones Beach - Wantagh kite Video Bit Torrents 2 04.13.11 01:31 AM
Stevie Nicks kite Requests 1 03.13.10 09:30 AM
Stevie Nicks - VH1 Storytellers 1998 trentnaka Video Bit Torrents 12 03.10.09 09:43 PM
Stevie Nicks - 1983-05-30 - US Festival Devore, CA (NTSC) kite General Trade Discussion 3 03.21.08 02:07 PM



8.jpg


Powered by vBulletin® Version 3.8.5
Copyright ©2000 - 2018, Jelsoft Enterprises Ltd.

WEB HOSTING: Hosting 4 Less

vB Forum Feeds by CinVin

Copyright © 2004-2018 JamToThis.com

vBulletin Skin developed by: vBStyles.com