JamToThis  
iTrader

Is your sharing ratio bad? Donate to our server costs and get upload credit!

Go Back   JamToThis > Bit Torrent Downloads > Video Bit Torrents

Closed Thread
 
Thread Tools Display Modes
  (#1) Old
kite kite is offline
Moderator
 
kite's Avatar


Join Date: 11.03.06
User ID: 13825
Posts: 1,097
Location: Manhattan aan de Maas

Trader Rating: 160

Rate This Trader!



UL: 1.26 TB
DL: 362.10 GB
Ratio: 3.57
Seed Points: 10,443.60

Sharing Ratio
Policy


Torrent Thank You's: 5,103
Thanked Posts: 55

Video - Audience Kiss (2 cam) disc 2 - Arnhem 06-18-2010 - 10.12.10, 01:22 PM

Artist:
Kiss (2 cam) disc 2

Show or Bootleg Title:
Arnhem 06-18-2010

Show Venue:
De GelreDome

Source:


Video Quality/Production Info:
Rate yourself

Audio/Video Specs:
General
Complete name : \\Kiss Arnhem 2 cam- disc 1/VIDEO_TS/VTS_01_0.VOB
Format : MPEG-PS
File size : 810 KiB
Duration : 1s 0ms
Overall bit rate : 6 636 Kbps

Video
ID : 224 (0xE0)
Format : MPEG Video
Format version : Version 2
Format profile : Main@Main
Format settings, BVOP : No
Format settings, Matrix : Default
Duration : 1s 0ms
Bit rate mode : Variable
Bit rate : 7 500 Kbps
Width : 720 pixels
Height : 576 pixels
Display aspect ratio : 16:9
Frame rate : 25.000 fps
Standard : PAL
Color space : YUV
Chroma subsampling : 4:2:0
Bit depth : 8 bits
Scan type : Interlaced
Scan order : Top Field First
Bits/(Pixel*Frame) : 0.723
Stream size : 916 KiB

Audio
ID : 128 (0x80)
Format : AC-3
Format/Info : Audio Coding 3
Mode extension : CM (complete main)
Duration : 768ms
Bit rate mode : Constant
Bit rate : 64.0 Kbps
Channel(s) : 2 channels
Channel positions : Front: L R
Sampling rate : 48.0 KHz
Bit depth : 16 bits
Stream size : 6.00 KiB (1%)

Text
ID : 32 (0x20)
Format : RLE
Format/Info : Run-length encoding

Menu

General
Complete name : Kiss Arnhem 2 cam- disc 1/VIDEO_TS/VTS_01_1.VOB
Format : MPEG-PS
File size : 1 024 MiB
Duration : 27mn 1s
Overall bit rate : 5 298 Kbps

Video
ID : 224 (0xE0)
Format : MPEG Video
Format version : Version 2
Format profile : Main@Main
Format settings, BVOP : No
Format settings, Matrix : Default
Format settings, GOP : M=1, N=15
Duration : 27mn 1s
Bit rate mode : Variable
Bit rate : 5 001 Kbps
Nominal bit rate : 8 000 Kbps
Width : 720 pixels
Height : 576 pixels
Display aspect ratio : 16:9
Frame rate : 25.000 fps
Standard : PAL
Color space : YUV
Chroma subsampling : 4:2:0
Bit depth : 8 bits
Scan type : Interlaced
Scan order : Bottom Field First
Bits/(Pixel*Frame) : 0.482
Stream size : 966 MiB (94%)

Audio
ID : 128 (0x80)
Format : AC-3
Format/Info : Audio Coding 3
Mode extension : CM (complete main)
Duration : 27mn 0s
Bit rate mode : Constant
Bit rate : 192 Kbps
Channel(s) : 2 channels
Channel positions : Front: L R
Sampling rate : 48.0 KHz
Bit depth : 16 bits
Stream size : 37.1 MiB (4%)

Menu

General
Complete name : Kiss Arnhem 2 cam- disc 1/VIDEO_TS/VTS_01_2.VOB
Format : MPEG-PS
File size : 1 024 MiB
Duration : 27mn 1s
Overall bit rate : 5 297 Kbps

Video
ID : 224 (0xE0)
Format : MPEG Video
Format version : Version 2
Format profile : Main@Main
Format settings, BVOP : No
Format settings, Matrix : Default
Format settings, GOP : M=1, N=15
Duration : 27mn 1s
Bit rate mode : Variable
Bit rate : 5 000 Kbps
Nominal bit rate : 8 000 Kbps
Width : 720 pixels
Height : 576 pixels
Display aspect ratio : 16:9
Frame rate : 25.000 fps
Standard : PAL
Color space : YUV
Chroma subsampling : 4:2:0
Bit depth : 8 bits
Scan type : Interlaced
Scan order : Bottom Field First
Bits/(Pixel*Frame) : 0.482
Stream size : 966 MiB (94%)

Audio
ID : 128 (0x80)
Format : AC-3
Format/Info : Audio Coding 3
Mode extension : CM (complete main)
Duration : 27mn 1s
Bit rate mode : Constant
Bit rate : 192 Kbps
Channel(s) : 2 channels
Channel positions : Front: L R
Sampling rate : 48.0 KHz
Bit depth : 16 bits
Video delay : -328ms
Stream size : 37.1 MiB (4%)

Menu

General
Complete name : Kiss Arnhem 2 cam- disc 1/VIDEO_TS/VTS_01_3.VOB
Format : MPEG-PS
File size : 1 024 MiB
Duration : 27mn 1s
Overall bit rate : 5 297 Kbps

Video
ID : 224 (0xE0)
Format : MPEG Video
Format version : Version 2
Format profile : Main@Main
Format settings, BVOP : No
Format settings, Matrix : Default
Format settings, GOP : M=1, N=15
Duration : 27mn 1s
Bit rate mode : Variable
Bit rate : 5 000 Kbps
Nominal bit rate : 8 000 Kbps
Width : 720 pixels
Height : 576 pixels
Display aspect ratio : 16:9
Frame rate : 25.000 fps
Standard : PAL
Color space : YUV
Chroma subsampling : 4:2:0
Bit depth : 8 bits
Scan type : Interlaced
Scan order : Bottom Field First
Bits/(Pixel*Frame) : 0.482
Stream size : 966 MiB (94%)

Audio
ID : 128 (0x80)
Format : AC-3
Format/Info : Audio Coding 3
Mode extension : CM (complete main)
Duration : 27mn 1s
Bit rate mode : Constant
Bit rate : 192 Kbps
Channel(s) : 2 channels
Channel positions : Front: L R
Sampling rate : 48.0 KHz
Bit depth : 16 bits
Video delay : -320ms
Stream size : 37.1 MiB (4%)

Menu

General
Complete name : Kiss Arnhem 2 cam- disc 1/VIDEO_TS/VTS_01_4.VOB
Format : MPEG-PS
File size : 28.7 MiB
Duration : 1mn 9s
Overall bit rate : 3 476 Kbps

Video
ID : 224 (0xE0)
Format : MPEG Video
Format version : Version 2
Format profile : Main@Main
Format settings, BVOP : No
Format settings, Matrix : Default
Format settings, GOP : M=1, N=15
Duration : 1mn 9s
Bit rate mode : Variable
Bit rate : 3 215 Kbps
Nominal bit rate : 8 000 Kbps
Width : 720 pixels
Height : 576 pixels
Display aspect ratio : 16:9
Frame rate : 25.000 fps
Standard : PAL
Color space : YUV
Chroma subsampling : 4:2:0
Bit depth : 8 bits
Scan type : Interlaced
Scan order : Bottom Field First
Bits/(Pixel*Frame) : 0.310
Stream size : 26.5 MiB (92%)

Audio
ID : 128 (0x80)
Format : AC-3
Format/Info : Audio Coding 3
Mode extension : CM (complete main)
Duration : 1mn 9s
Bit rate mode : Constant
Bit rate : 192 Kbps
Channel(s) : 2 channels
Channel positions : Front: L R
Sampling rate : 48.0 KHz
Bit depth : 16 bits
Video delay : -272ms
Stream size : 1.59 MiB (6%)

Menu

General
Complete name : Kiss Arnhem 2 cam- disc 1/VIDEO_TS/VTS_01_0.IFO
Format : DVD Video
Format profile : Program
File size : 58.0 KiB

Video
ID : 224 (0xE0)
Format : MPEG Video
Format version : Version 2
Bit rate mode : Variable
Width : 720 pixels
Height : 576 pixels
Display aspect ratio : 16:9
Frame rate : 25.000 fps
Standard : PAL

Audio
ID : 128 (0x80)
Format : AC-3
Format/Info : Audio Coding 3
Channel(s) : 2 channels
Sampling rate : 48.0 KHz
Language : English

Menu
List (Audio) : 0

General
Complete name : Kiss Arnhem 2 cam- disc 1/VIDEO_TS/VTS_01_0.BUP
Format : DVD Video
Format profile : Program
File size : 58.0 KiB

Video
ID : 224 (0xE0)
Format : MPEG Video
Format version : Version 2
Bit rate mode : Variable
Width : 720 pixels
Height : 576 pixels
Display aspect ratio : 16:9
Frame rate : 25.000 fps
Standard : PAL

Audio
ID : 128 (0x80)
Format : AC-3
Format/Info : Audio Coding 3
Channel(s) : 2 channels
Sampling rate : 48.0 KHz
Language : English

Menu
List (Audio) : 0

General
Complete name : Kiss Arnhem 2 cam- disc 1/VIDEO_TS/VIDEO_TS.VOB
Format : MPEG-PS
File size : 282 KiB
Duration : 1s 0ms
Overall bit rate : 2 310 Kbps

Video
ID : 224 (0xE0)
Format : MPEG Video
Format version : Version 2
Format profile : Main@Main
Format settings, BVOP : No
Format settings, Matrix : Default
Format settings, GOP : M=1, N=15
Duration : 1s 0ms
Bit rate mode : Variable
Bit rate : 7 500 Kbps
Width : 720 pixels
Height : 576 pixels
Display aspect ratio : 16:9
Frame rate : 25.000 fps
Standard : PAL
Color space : YUV
Chroma subsampling : 4:2:0
Bit depth : 8 bits
Scan type : Interlaced
Scan order : Top Field First
Bits/(Pixel*Frame) : 0.723
Stream size : 916 KiB

Audio
ID : 128 (0x80)
Format : AC-3
Format/Info : Audio Coding 3
Mode extension : CM (complete main)
Duration : 768ms
Bit rate mode : Constant
Bit rate : 64.0 Kbps
Channel(s) : 2 channels
Channel positions : Front: L R
Sampling rate : 48.0 KHz
Bit depth : 16 bits
Stream size : 6.00 KiB (2%)

Text
ID : 32 (0x20)
Format : RLE
Format/Info : Run-length encoding

Menu

General
Complete name : Kiss Arnhem 2 cam- disc 1/VIDEO_TS/VIDEO_TS.IFO
Format : DVD Video
Format profile : Menu
File size : 12.0 KiB

Video
ID : 224 (0xE0)
Format : MPEG Video
Format version : Version 2
Bit rate mode : Variable
Width : 720 pixels
Height : 576 pixels
Display aspect ratio : 16:9
Frame rate : 25.000 fps
Standard : PAL

Audio
Format : AC-3
Format/Info : Audio Coding 3
Channel(s) : 2 channels
Sampling rate : 48.0 KHz

Text
Format : RLE
Format/Info : Run-length encoding
Bit depth : 2 bits

General
Complete name : Kiss Arnhem 2 cam- disc 1/VIDEO_TS/VIDEO_TS.BUP
Format : DVD Video
Format profile : Menu
File size : 12.0 KiB

Video
ID : 224 (0xE0)
Format : MPEG Video
Format version : Version 2
Bit rate mode : Variable
Width : 720 pixels
Height : 576 pixels
Display aspect ratio : 16:9
Frame rate : 25.000 fps
Standard : PAL

Audio
Format : AC-3
Format/Info : Audio Coding 3
Channel(s) : 2 channels
Sampling rate : 48.0 KHz

Text
Format : RLE
Format/Info : Run-length encoding
Bit depth : 2 bits

Format:


Set List/Chapters:
setlist
01. Solo Gene
02. I love it loud
03. Love gun
04. Solo Paul
05. Black Diamond
06. Detroit Rock City
07. Crowd cheering
08. Beth
09. Lick it up
10. Shout it out loud
11. I was made for loving you
12. God gave rock `n`roll to you
13. Rock `n` roll all nite

Checksums or Fingerprints:
Created with Arch Linux 10-07-2010

bc273ffe09aff2ca2c1ce2f3c4e37e08 VIDEO_TS.BUP
bc273ffe09aff2ca2c1ce2f3c4e37e08 VIDEO_TS.IFO
80a8799158a8da24d425d9794f681971 VIDEO_TS.VOB
86eb7d9febed31f9dd5df553aaeef183 VTS_01_0.BUP
86eb7d9febed31f9dd5df553aaeef183 VTS_01_0.IFO
b1016a1ba55b12fad3066961d3ec2447 VTS_01_0.VOB
dc89ebd0bed195eaf26a297dfc48b65e VTS_01_1.VOB
5c28b9f896dfc8d625fc88520e7b47b4 VTS_01_2.VOB
3d4b33b3faf263978bf5011dbe023ae2 VTS_01_3.VOB

This is my filmed Kiss Arnhem concert mixed with the footage from another filmer called Buks

I used his audio

Keep this in mind
After each song i`d to stop my camera and start recording again , so you will notice this on the dvd

Filmed with a luminox cam,
DVD created with, Arch linux, Kdenlive & QDVD

I hope you all enjoy it like i did










PLEASE DO NOT TORRENT ON OTHER SITES, I BRING IT UP MYSELF. THX
Attached Files
This post has an attachment which you could see if you were registered.


I know I live in my own world, but that does not matter because they know me there




http://www.irixos.nl/kt/

Last edited by kite; 10.12.10 at 01:33 PM.
The Following 132 Members Thank kite For This Torrent
126c2, Ace15121964, aliona, alter sack, alwaysdime, alwaysKISS, anewuser, antoma, BadassMOFO, BDF, bedebao, boomerjnk, bruceg63, cacokiss, chiro70, Claudio Valenzuela Dìaz, cobohall76, commandos, cruehead, da666rocker, daanbolwerk, dakus, damhooligan, dant, ddcole, deaez, digitalpimp, Digit_Al, dinosaurhh, DJ70, DuckTape, ducolferai, eddaniels, EdMirFab, erickiss, fandr78, feko, fenderblaster, FlaMaiden, Flapdrol, fralgren, friedel, Gallumbo, gava, hassing2112, imtherocker1976, IngoNS88, irma77, jasma, jbkissfan, jeancoverdesign, JFKISS, joachee, johnnyq, jsalazar, juanca, Keith Moon, kisslover, kissoflex, kissone, kixdude, klain, Lesnov, letsrock666, lhkyle, lollypop40, Loopis2000, loveharuto, Luchifer, lujami, Madluv, manimal119, matiello, maxrock1, mccarty, Metalbucket, metalgod666, metalleux, metalpunk39, mies, Miguekiss, motleymexico, mrkiss, Muroh, om93, outnumbered, ozzy66, p993c4s, PaulB66, peterson, pickel78, popareller1, ppantera, realtulp, reinaldo carr, robbiehul, roberpolo2006, rock80metal, rockandrollover, rodrikiss, Roulette, rsauye, rushvh, rustictreasures, ryanframe, san, Satanik Circus, Skid Row, Sorceror, soulman, speednexo, spheric, strutter78, The Fox, theblindshaman, tntstars, Totenkopf, tottipic, urfold, Vertigo, VikingJam, voceras, webdj, wildman simmons, Wounded.Leg, yattman10, zombie46, zr1fevr
  (#2) Old
rockandrollover rockandrollover is offline
Trader Supreme
 
rockandrollover's Avatar


Join Date: 04.07.06
User ID: 9628
Posts: 542

Trader Rating: 1

Rate This Trader!



UL: 816.35 GB
DL: 903.86 GB
Ratio: 0.90
Seed Points: 10,211.20

Sharing Ratio
Policy


Torrent Thank You's: 0
Thanked Posts: 312

10.12.10, 01:58 PM

Thanks!
  (#3) Old
urfold urfold is offline
We Came To Rock
 
urfold's Avatar


Join Date: 09.03.09
User ID: 40325
Posts: 4,413
Location: Pandemonium

Trader Rating: 278

Rate This Trader!



UL: 12.59 TB
DL: 7.81 TB
Ratio: 1.61
Seed Points: 806,236.80

Sharing Ratio
Policy


Torrent Thank You's: 14,303
Thanked Posts: 2,170

10.12.10, 10:08 PM

Thanks again Dirk, what a job you've done




************************

Great New Lossless Torrent Bootleg Site
http://liveshownation.com/index.php
  (#4) Old
metalgod666 metalgod666 is offline
Trader Supreme


Join Date: 01.06.10
User ID: 42904
Posts: 567

Trader Rating: 1

Rate This Trader!



UL: 868.46 GB
DL: 878.71 GB
Ratio: 0.99
Seed Points: 33,317.80

Sharing Ratio
Policy


Torrent Thank You's: 0
Thanked Posts: 325

10.13.10, 11:22 AM

Thank you for the upload!
  (#5) Old
roberpolo2006 roberpolo2006 is offline
Trader Supreme


Join Date: 01.28.06
User ID: 7988
Posts: 522

Trader Rating: 1

Rate This Trader!



UL: 4.30 TB
DL: 2.77 TB
Ratio: 1.55
Seed Points: 8,570.00

Sharing Ratio
Policy


Torrent Thank You's: 0
Thanked Posts: 449

10.13.10, 09:48 PM

Many thanks for the show
  (#6) Old
irma77 irma77 is offline
Trader Supreme


Join Date: 10.14.08
User ID: 31542
Posts: 666

Trader Rating: 1

Rate This Trader!



UL: 1.68 TB
DL: 1.65 TB
Ratio: 1.02
Seed Points: 1,566.60

Sharing Ratio
Policy


Torrent Thank You's: 0
Thanked Posts: 515

Smile 10.14.10, 06:28 AM

awesome!!!!!!!!!
  (#7) Old
ozzy66 ozzy66 is offline
Trader&Uploader
 
ozzy66's Avatar


Join Date: 08.06.06
User ID: 12347
Posts: 639
Location: Holland

Trader Rating: 37

Rate This Trader!



UL: 4.57 TB
DL: 1.57 TB
Ratio: 2.91
Seed Points: 2,390.00

Sharing Ratio
Policy


Torrent Thank You's: 2,523
Thanked Posts: 267

10.14.10, 10:29 AM

thanks for this one!
  (#8) Old
BDF BDF is offline
Trader
 
BDF's Avatar


Join Date: 02.26.06
User ID: 8687
Posts: 149

Trader Rating: 0

Rate This Trader!



UL: 387.53 GB
DL: 191.65 GB
Ratio: 2.02
Seed Points: 219.20

Sharing Ratio
Policy


Torrent Thank You's: 0
Thanked Posts: 60

10.14.10, 07:12 PM

Thank you
  (#9) Old
Ace15121964 Ace15121964 is offline
Rookie


Join Date: 09.14.10
User ID: 48293
Posts: 29

Trader Rating: 0

Rate This Trader!



UL: 16.64 GB
DL: 24.94 GB
Ratio: 0.67
Seed Points: 169.60

Sharing Ratio
Policy


Torrent Thank You's: 0
Thanked Posts: 23

10.14.10, 07:35 PM

Thanx...
  (#10) Old
kisslover kisslover is offline
Rookie


Join Date: 09.13.09
User ID: 40544
Posts: 4

Trader Rating: 0

Rate This Trader!



UL: 1.30 GB
DL: 5.40 GB
Ratio: 0.24
Seed Points: 6.80

Sharing Ratio
Policy


Torrent Thank You's: 0
Thanked Posts: 3

10.14.10, 11:06 PM

thx
  (#11) Old
spheric spheric is offline
Trader Supreme


Join Date: 06.15.07
User ID: 17688
Posts: 321

Trader Rating: 2

Rate This Trader!



UL: 718.80 GB
DL: 521.86 GB
Ratio: 1.38
Seed Points: 13,173.00

Sharing Ratio
Policy


Torrent Thank You's: 0
Thanked Posts: 211

10.15.10, 12:52 AM

THNX!! A lot..
  (#12) Old
126c2 126c2 is offline
Trader


Join Date: 01.31.07
User ID: 15468
Posts: 176

Trader Rating: 0

Rate This Trader!



UL: 756.65 GB
DL: 496.41 GB
Ratio: 1.52
Seed Points: 506.60

Sharing Ratio
Policy


Torrent Thank You's: 0
Thanked Posts: 70

10.15.10, 03:10 AM

thanks a lot for the second disc!
  (#13) Old
klain klain is offline
You Rock!
 
klain's Avatar


Join Date: 05.14.09
User ID: 37457
Posts: 40
Location: California

Trader Rating: 0

Rate This Trader!



UL: 2.80 GB
DL: 26.65 GB
Ratio: 0.10
Seed Points: 329.00

Sharing Ratio
Policy


Torrent Thank You's: 0
Thanked Posts: 24

10.15.10, 04:12 AM

Very good!!!
thanks man
  (#14) Old
zr1fevr zr1fevr is offline
Trader Supreme


Join Date: 09.20.04
User ID: 123
Posts: 699

Trader Rating: 0

Rate This Trader!



UL: 2.00 TB
DL: 2.17 TB
Ratio: 0.92
Seed Points: 7,286.20

Sharing Ratio
Policy


Torrent Thank You's: 0
Thanked Posts: 586

10.15.10, 08:00 AM

Thank You!
  (#15) Old
brunocappobianco brunocappobianco is offline
Rookie
 
brunocappobianco's Avatar


Join Date: 10.19.10
User ID: 49019
Posts: 16
Location: São Paulo, Brasil

Trader Rating: 0

Rate This Trader!



UL: 447.20 MB
DL: 29.11 GB
Ratio: 0.02
Seed Points: 53.20

Sharing Ratio
Policy


Torrent Thank You's: 0
Thanked Posts: 14

Send a message via MSN to brunocappobianco Send a message via Skype™ to brunocappobianco
10.19.10, 02:46 PM

Obrigado por disponibilizar


Bruno Cappobianco
KISS
  (#16) Old
kixdude kixdude is offline
I LIKE BOOTLEGS
 
kixdude's Avatar


Join Date: 11.25.07
User ID: 24105
Posts: 442

Trader Rating: 78

Rate This Trader!



UL: 666.08 GB
DL: 838.86 GB
Ratio: 0.79
Seed Points: 1,409.80

Sharing Ratio
Policy


Torrent Thank You's: 4,200
Thanked Posts: 234

10.19.10, 03:41 PM

thanks a lot!
  (#17) Old
kite kite is offline
Moderator
 
kite's Avatar


Join Date: 11.03.06
User ID: 13825
Posts: 1,097
Location: Manhattan aan de Maas

Trader Rating: 160

Rate This Trader!



UL: 1.26 TB
DL: 362.10 GB
Ratio: 3.57
Seed Points: 10,443.60

Sharing Ratio
Policy


Torrent Thank You's: 5,103
Thanked Posts: 55

10.19.10, 08:50 PM

Quote:
Originally Posted by brunocappobianco View Post
Obrigado por disponibilizar
Você é bem vindo e aproveite o show

(google translate)


I know I live in my own world, but that does not matter because they know me there




http://www.irixos.nl/kt/
  (#18) Old
ducolferai ducolferai is offline
Trader


Join Date: 08.20.07
User ID: 19679
Posts: 103

Trader Rating: 1

Rate This Trader!



UL: 33.34 GB
DL: 66.12 GB
Ratio: 0.50
Seed Points: 12.80

Sharing Ratio
Policy


Torrent Thank You's: 0
Thanked Posts: 47

11.06.10, 03:21 AM

thanks
  (#19) Old
ducolferai ducolferai is offline
Trader


Join Date: 08.20.07
User ID: 19679
Posts: 103

Trader Rating: 1

Rate This Trader!



UL: 33.34 GB
DL: 66.12 GB
Ratio: 0.50
Seed Points: 12.80

Sharing Ratio
Policy


Torrent Thank You's: 0
Thanked Posts: 47

11.06.10, 03:24 AM

thanks
Quote:
Originally Posted by kite View Post
Artist:
Kiss (2 cam) disc 2

Show or Bootleg Title:
Arnhem 06-18-2010

Show Venue:
De GelreDome

Source:


Video Quality/Production Info:
Rate yourself

Audio/Video Specs:
General
Complete name : \\Kiss Arnhem 2 cam- disc 1/VIDEO_TS/VTS_01_0.VOB
Format : MPEG-PS
File size : 810 KiB
Duration : 1s 0ms
Overall bit rate : 6 636 Kbps

Video
ID : 224 (0xE0)
Format : MPEG Video
Format version : Version 2
Format profile : Main@Main
Format settings, BVOP : No
Format settings, Matrix : Default
Duration : 1s 0ms
Bit rate mode : Variable
Bit rate : 7 500 Kbps
Width : 720 pixels
Height : 576 pixels
Display aspect ratio : 16:9
Frame rate : 25.000 fps
Standard : PAL
Color space : YUV
Chroma subsampling : 4:2:0
Bit depth : 8 bits
Scan type : Interlaced
Scan order : Top Field First
Bits/(Pixel*Frame) : 0.723
Stream size : 916 KiB

Audio
ID : 128 (0x80)
Format : AC-3
Format/Info : Audio Coding 3
Mode extension : CM (complete main)
Duration : 768ms
Bit rate mode : Constant
Bit rate : 64.0 Kbps
Channel(s) : 2 channels
Channel positions : Front: L R
Sampling rate : 48.0 KHz
Bit depth : 16 bits
Stream size : 6.00 KiB (1%)

Text
ID : 32 (0x20)
Format : RLE
Format/Info : Run-length encoding

Menu

General
Complete name : Kiss Arnhem 2 cam- disc 1/VIDEO_TS/VTS_01_1.VOB
Format : MPEG-PS
File size : 1 024 MiB
Duration : 27mn 1s
Overall bit rate : 5 298 Kbps

Video
ID : 224 (0xE0)
Format : MPEG Video
Format version : Version 2
Format profile : Main@Main
Format settings, BVOP : No
Format settings, Matrix : Default
Format settings, GOP : M=1, N=15
Duration : 27mn 1s
Bit rate mode : Variable
Bit rate : 5 001 Kbps
Nominal bit rate : 8 000 Kbps
Width : 720 pixels
Height : 576 pixels
Display aspect ratio : 16:9
Frame rate : 25.000 fps
Standard : PAL
Color space : YUV
Chroma subsampling : 4:2:0
Bit depth : 8 bits
Scan type : Interlaced
Scan order : Bottom Field First
Bits/(Pixel*Frame) : 0.482
Stream size : 966 MiB (94%)

Audio
ID : 128 (0x80)
Format : AC-3
Format/Info : Audio Coding 3
Mode extension : CM (complete main)
Duration : 27mn 0s
Bit rate mode : Constant
Bit rate : 192 Kbps
Channel(s) : 2 channels
Channel positions : Front: L R
Sampling rate : 48.0 KHz
Bit depth : 16 bits
Stream size : 37.1 MiB (4%)

Menu

General
Complete name : Kiss Arnhem 2 cam- disc 1/VIDEO_TS/VTS_01_2.VOB
Format : MPEG-PS
File size : 1 024 MiB
Duration : 27mn 1s
Overall bit rate : 5 297 Kbps

Video
ID : 224 (0xE0)
Format : MPEG Video
Format version : Version 2
Format profile : Main@Main
Format settings, BVOP : No
Format settings, Matrix : Default
Format settings, GOP : M=1, N=15
Duration : 27mn 1s
Bit rate mode : Variable
Bit rate : 5 000 Kbps
Nominal bit rate : 8 000 Kbps
Width : 720 pixels
Height : 576 pixels
Display aspect ratio : 16:9
Frame rate : 25.000 fps
Standard : PAL
Color space : YUV
Chroma subsampling : 4:2:0
Bit depth : 8 bits
Scan type : Interlaced
Scan order : Bottom Field First
Bits/(Pixel*Frame) : 0.482
Stream size : 966 MiB (94%)

Audio
ID : 128 (0x80)
Format : AC-3
Format/Info : Audio Coding 3
Mode extension : CM (complete main)
Duration : 27mn 1s
Bit rate mode : Constant
Bit rate : 192 Kbps
Channel(s) : 2 channels
Channel positions : Front: L R
Sampling rate : 48.0 KHz
Bit depth : 16 bits
Video delay : -328ms
Stream size : 37.1 MiB (4%)

Menu

General
Complete name : Kiss Arnhem 2 cam- disc 1/VIDEO_TS/VTS_01_3.VOB
Format : MPEG-PS
File size : 1 024 MiB
Duration : 27mn 1s
Overall bit rate : 5 297 Kbps

Video
ID : 224 (0xE0)
Format : MPEG Video
Format version : Version 2
Format profile : Main@Main
Format settings, BVOP : No
Format settings, Matrix : Default
Format settings, GOP : M=1, N=15
Duration : 27mn 1s
Bit rate mode : Variable
Bit rate : 5 000 Kbps
Nominal bit rate : 8 000 Kbps
Width : 720 pixels
Height : 576 pixels
Display aspect ratio : 16:9
Frame rate : 25.000 fps
Standard : PAL
Color space : YUV
Chroma subsampling : 4:2:0
Bit depth : 8 bits
Scan type : Interlaced
Scan order : Bottom Field First
Bits/(Pixel*Frame) : 0.482
Stream size : 966 MiB (94%)

Audio
ID : 128 (0x80)
Format : AC-3
Format/Info : Audio Coding 3
Mode extension : CM (complete main)
Duration : 27mn 1s
Bit rate mode : Constant
Bit rate : 192 Kbps
Channel(s) : 2 channels
Channel positions : Front: L R
Sampling rate : 48.0 KHz
Bit depth : 16 bits
Video delay : -320ms
Stream size : 37.1 MiB (4%)

Menu

General
Complete name : Kiss Arnhem 2 cam- disc 1/VIDEO_TS/VTS_01_4.VOB
Format : MPEG-PS
File size : 28.7 MiB
Duration : 1mn 9s
Overall bit rate : 3 476 Kbps

Video
ID : 224 (0xE0)
Format : MPEG Video
Format version : Version 2
Format profile : Main@Main
Format settings, BVOP : No
Format settings, Matrix : Default
Format settings, GOP : M=1, N=15
Duration : 1mn 9s
Bit rate mode : Variable
Bit rate : 3 215 Kbps
Nominal bit rate : 8 000 Kbps
Width : 720 pixels
Height : 576 pixels
Display aspect ratio : 16:9
Frame rate : 25.000 fps
Standard : PAL
Color space : YUV
Chroma subsampling : 4:2:0
Bit depth : 8 bits
Scan type : Interlaced
Scan order : Bottom Field First
Bits/(Pixel*Frame) : 0.310
Stream size : 26.5 MiB (92%)

Audio
ID : 128 (0x80)
Format : AC-3
Format/Info : Audio Coding 3
Mode extension : CM (complete main)
Duration : 1mn 9s
Bit rate mode : Constant
Bit rate : 192 Kbps
Channel(s) : 2 channels
Channel positions : Front: L R
Sampling rate : 48.0 KHz
Bit depth : 16 bits
Video delay : -272ms
Stream size : 1.59 MiB (6%)

Menu

General
Complete name : Kiss Arnhem 2 cam- disc 1/VIDEO_TS/VTS_01_0.IFO
Format : DVD Video
Format profile : Program
File size : 58.0 KiB

Video
ID : 224 (0xE0)
Format : MPEG Video
Format version : Version 2
Bit rate mode : Variable
Width : 720 pixels
Height : 576 pixels
Display aspect ratio : 16:9
Frame rate : 25.000 fps
Standard : PAL

Audio
ID : 128 (0x80)
Format : AC-3
Format/Info : Audio Coding 3
Channel(s) : 2 channels
Sampling rate : 48.0 KHz
Language : English

Menu
List (Audio) : 0

General
Complete name : Kiss Arnhem 2 cam- disc 1/VIDEO_TS/VTS_01_0.BUP
Format : DVD Video
Format profile : Program
File size : 58.0 KiB

Video
ID : 224 (0xE0)
Format : MPEG Video
Format version : Version 2
Bit rate mode : Variable
Width : 720 pixels
Height : 576 pixels
Display aspect ratio : 16:9
Frame rate : 25.000 fps
Standard : PAL

Audio
ID : 128 (0x80)
Format : AC-3
Format/Info : Audio Coding 3
Channel(s) : 2 channels
Sampling rate : 48.0 KHz
Language : English

Menu
List (Audio) : 0

General
Complete name : Kiss Arnhem 2 cam- disc 1/VIDEO_TS/VIDEO_TS.VOB
Format : MPEG-PS
File size : 282 KiB
Duration : 1s 0ms
Overall bit rate : 2 310 Kbps

Video
ID : 224 (0xE0)
Format : MPEG Video
Format version : Version 2
Format profile : Main@Main
Format settings, BVOP : No
Format settings, Matrix : Default
Format settings, GOP : M=1, N=15
Duration : 1s 0ms
Bit rate mode : Variable
Bit rate : 7 500 Kbps
Width : 720 pixels
Height : 576 pixels
Display aspect ratio : 16:9
Frame rate : 25.000 fps
Standard : PAL
Color space : YUV
Chroma subsampling : 4:2:0
Bit depth : 8 bits
Scan type : Interlaced
Scan order : Top Field First
Bits/(Pixel*Frame) : 0.723
Stream size : 916 KiB

Audio
ID : 128 (0x80)
Format : AC-3
Format/Info : Audio Coding 3
Mode extension : CM (complete main)
Duration : 768ms
Bit rate mode : Constant
Bit rate : 64.0 Kbps
Channel(s) : 2 channels
Channel positions : Front: L R
Sampling rate : 48.0 KHz
Bit depth : 16 bits
Stream size : 6.00 KiB (2%)

Text
ID : 32 (0x20)
Format : RLE
Format/Info : Run-length encoding

Menu

General
Complete name : Kiss Arnhem 2 cam- disc 1/VIDEO_TS/VIDEO_TS.IFO
Format : DVD Video
Format profile : Menu
File size : 12.0 KiB

Video
ID : 224 (0xE0)
Format : MPEG Video
Format version : Version 2
Bit rate mode : Variable
Width : 720 pixels
Height : 576 pixels
Display aspect ratio : 16:9
Frame rate : 25.000 fps
Standard : PAL

Audio
Format : AC-3
Format/Info : Audio Coding 3
Channel(s) : 2 channels
Sampling rate : 48.0 KHz

Text
Format : RLE
Format/Info : Run-length encoding
Bit depth : 2 bits

General
Complete name : Kiss Arnhem 2 cam- disc 1/VIDEO_TS/VIDEO_TS.BUP
Format : DVD Video
Format profile : Menu
File size : 12.0 KiB

Video
ID : 224 (0xE0)
Format : MPEG Video
Format version : Version 2
Bit rate mode : Variable
Width : 720 pixels
Height : 576 pixels
Display aspect ratio : 16:9
Frame rate : 25.000 fps
Standard : PAL

Audio
Format : AC-3
Format/Info : Audio Coding 3
Channel(s) : 2 channels
Sampling rate : 48.0 KHz

Text
Format : RLE
Format/Info : Run-length encoding
Bit depth : 2 bits

Format:


Set List/Chapters:
setlist
01. Solo Gene
02. I love it loud
03. Love gun
04. Solo Paul
05. Black Diamond
06. Detroit Rock City
07. Crowd cheering
08. Beth
09. Lick it up
10. Shout it out loud
11. I was made for loving you
12. God gave rock `n`roll to you
13. Rock `n` roll all nite

Checksums or Fingerprints:
Created with Arch Linux 10-07-2010

bc273ffe09aff2ca2c1ce2f3c4e37e08 VIDEO_TS.BUP
bc273ffe09aff2ca2c1ce2f3c4e37e08 VIDEO_TS.IFO
80a8799158a8da24d425d9794f681971 VIDEO_TS.VOB
86eb7d9febed31f9dd5df553aaeef183 VTS_01_0.BUP
86eb7d9febed31f9dd5df553aaeef183 VTS_01_0.IFO
b1016a1ba55b12fad3066961d3ec2447 VTS_01_0.VOB
dc89ebd0bed195eaf26a297dfc48b65e VTS_01_1.VOB
5c28b9f896dfc8d625fc88520e7b47b4 VTS_01_2.VOB
3d4b33b3faf263978bf5011dbe023ae2 VTS_01_3.VOB

This is my filmed Kiss Arnhem concert mixed with the footage from another filmer called Buks

I used his audio

Keep this in mind
After each song i`d to stop my camera and start recording again , so you will notice this on the dvd

Filmed with a luminox cam,
DVD created with, Arch linux, Kdenlive & QDVD

I hope you all enjoy it like i did










PLEASE DO NOT TORRENT ON OTHER SITES, I BRING IT UP MYSELF. THX
  (#20) Old
cacokiss cacokiss is offline
Trader


Join Date: 02.03.10
User ID: 43513
Posts: 53

Trader Rating: 0

Rate This Trader!



UL: 34.27 GB
DL: 59.14 GB
Ratio: 0.58
Seed Points: 925.80

Sharing Ratio
Policy


Torrent Thank You's: 0
Thanked Posts: 30

11.14.10, 04:33 PM

thanks
Closed Thread

Tags
06-18-2010, arnhem, cam, disc, kiss

Thread Tools
Display Modes

Posting Rules
You may not post new threads
You may not post replies
You may not post attachments
You may not edit your posts

BB code is On
Smilies are On
[IMG] code is On
HTML code is Off

Forum Jump

Similar Threads
Thread Thread Starter Forum Replies Last Post
My bootlegs list - over 3000 titles sirDamian Trade Lists 21 11.19.13 07:10 AM
Trade!!!! Muttlange Non-Bit Torrent Trading 3 08.22.13 04:58 AM
Looking to trade (Black Crowes mainly) rick m Trade Lists 0 05.30.09 12:35 PM



6.jpg


Powered by vBulletin® Version 3.8.5
Copyright ©2000 - 2018, Jelsoft Enterprises Ltd.

WEB HOSTING: Hosting 4 Less

vB Forum Feeds by CinVin

Copyright © 2004-2017 JamToThis.com

vBulletin Skin developed by: vBStyles.com