JamToThis  
iTrader

Is your sharing ratio bad? Donate to our server costs and get upload credit!

Go Back   JamToThis > Bit Torrent Downloads > Video Bit Torrents

Closed Thread
 
Thread Tools Display Modes
  (#1) Old
heavydude71 heavydude71 is offline
Rookie


Join Date: 06.20.10
User ID: 46344
Posts: 39
Location: Norway

Trader Rating: 1

Rate This Trader!



UL: 67.72 GB
DL: 79.02 GB
Ratio: 0.86
Seed Points: 3,687.80

Sharing Ratio
Policy


Torrent Thank You's: 223
Thanked Posts: 28

Video - Audience Dio - New Haven,CT,USA - 03.August 1990 - 06.25.10, 01:56 AM

Artist:
Dio

Show or Bootleg Title:
New Haven,CT,USA - 03.August 1990

Show Venue:
Coliseum New Haven

Source: Audience recording


Video Quality/Production Info:
Video: B, Audio: B

Audio/Video Specs:
Video
ID : 224 (0xE0)
Format : MPEG Video
Format version : Version 2
Format profile : Main@Main
Format settings, BVOP : No
Format settings, Matrix : Default
Format settings, GOP : M=1, N=12
Duration : 23mn 16s
Bit rate mode : Variable
Bit rate : 4 692 Kbps
Nominal bit rate : 7 500 Kbps
Width : 720 pixels
Height : 480 pixels
Display aspect ratio : 4:3
Frame rate : 29.970 fps
Standard : NTSC
Color space : YUV
Chroma subsampling : 4:2:0
Bit depth : 8 bits
Scan type : Interlaced
Scan order : Top Field First
Bits/(Pixel*Frame) : 0.453
Stream size : 781 MiB (93%)

Audio
ID : 128 (0x80)
Format : AC-3
Format/Info : Audio Coding 3
Mode extension : CM (complete main)
Duration : 23mn 16s
Bit rate mode : Constant
Bit rate : 256 Kbps
Channel(s) : 2 channels
Channel positions : Front: L R
Sampling rate : 48.0 KHz
Video delay : -212ms
Stream size : 42.6 MiB (5%)

Format: NTSC


Set List/Chapters:
Intro
1. Wild One
2. Children Of The Sea
3. Man On The Silver Mountain
4. Tarot Woman /w keyboard Solo /w Stargazer
5. Long Live Rock Ôn Roll
8. Born On The Sun
9. Stand Up And Shout
10. Why Are They Watching Me w/ Guitar Solo
11. Don`t Talk To Strangers
12. Lock Up The Wolves
13. Hey Angel
14. The Last In Line
15. Heaven And Hell / The Last In Line Reprise
16. Rainbow In The Dark
17. Egypt (The Chains Are On)
18. Holy Diver
19. Neon Knights

Bonus: Grammie House - Dio in Studio (PRO)

Checksums or Fingerprints:
# MD5 checksums generated by MD5summer (http://www.md5summer.org)
# Generated 25.06.2010 11:48:26

bc8bd3c48cd4679fad26e0bd7efe27a6 *VIDEO_TS/VIDEO_TS.BUP
bc8bd3c48cd4679fad26e0bd7efe27a6 *VIDEO_TS/VIDEO_TS.IFO
e7432d51efcad952716bd0c9b948f860 *VIDEO_TS/VIDEO_TS.VOB
5b5e72ee40fa2a1a6a0f61dcc513848f *VIDEO_TS/VTS_01_0.BUP
5b5e72ee40fa2a1a6a0f61dcc513848f *VIDEO_TS/VTS_01_0.IFO
7c76e6a6a15038bdf823307eaca3f3c8 *VIDEO_TS/VTS_01_1.VOB
63d4db5a6f00e7a9a8050586c125f902 *VIDEO_TS/VTS_01_2.VOB
a9df9a1927b155477ce6c1ea17458806 *VIDEO_TS/VTS_01_3.VOB
a446a5e593a1ba901e0ff56192bf815e *VIDEO_TS/VTS_01_4.VOB
40c8dd3357b1ce0cb7d29980134351dc *VIDEO_TS/VTS_01_5.VOB
d062b2fd326663dc2f0e6ecc1e5935ce *Audio & Video.txt
7d22d63f686b6bdf46df357d6230f5e9 *Info.txt

Here Is Another Nice Dio Concert!
Enjoy!
Attached Files
This post has an attachment which you could see if you were registered.

Last edited by heavydude71; 06.25.10 at 01:59 AM.
  (#2) Old
kachanifabian kachanifabian is offline
Rookie


Join Date: 02.10.07
User ID: 15755
Posts: 15

Trader Rating: 0

Rate This Trader!



UL: 90.96 GB
DL: 105.93 GB
Ratio: 0.86
Seed Points: 0.00

Sharing Ratio
Policy


Torrent Thank You's: 0
Thanked Posts: 6

06.25.10, 04:18 AM

Thanks!!!
  (#3) Old
anrata anrata is offline
Trader God


Join Date: 10.06.06
User ID: 13386
Posts: 996

Trader Rating: 0

Rate This Trader!



UL: 664.63 GB
DL: 836.98 GB
Ratio: 0.79
Seed Points: 8,712.40

Sharing Ratio
Policy


Torrent Thank You's: 0
Thanked Posts: 480

06.26.10, 01:41 AM

many thanks
  (#4) Old
Sven69 Sven69 is offline
Trader Supreme


Join Date: 02.06.10
User ID: 43529
Posts: 380

Trader Rating: 0

Rate This Trader!



UL: 681.65 GB
DL: 630.05 GB
Ratio: 1.08
Seed Points: 31,234.00

Sharing Ratio
Policy


Torrent Thank You's: 0
Thanked Posts: 206

07.16.10, 12:39 AM

thanks
  (#5) Old
scoobydoo scoobydoo is offline
Rookie


Join Date: 09.29.07
User ID: 21072
Posts: 8

Trader Rating: 0

Rate This Trader!



UL: 5.32 GB
DL: 15.25 GB
Ratio: 0.35
Seed Points: 0.00

Sharing Ratio
Policy


Torrent Thank You's: 0
Thanked Posts: 6

Thanks - 07.28.10, 08:42 PM

Thanks, luv the 1990 era of DIO
Closed Thread

Tags
03.august, 1990, ct, dio, haven, usa

Thread Tools
Display Modes

Posting Rules
You may not post new threads
You may not post replies
You may not post attachments
You may not edit your posts

BB code is On
Smilies are On
[IMG] code is On
HTML code is Off

Forum Jump

Similar Threads
Thread Thread Starter Forum Replies Last Post
HI there Always Looking to Trade diamondmedia1 Trade Lists 40 09.22.10 07:58 AM
Dio - Dortmund 17.May 1990 DMP Video Bit Torrents 15 07.18.10 08:02 PM
Dio - 1990 Dvd Loopis Requests 0 07.15.06 02:33 AM



8.jpg


Powered by vBulletin® Version 3.8.5
Copyright ©2000 - 2018, Jelsoft Enterprises Ltd.

WEB HOSTING: Hosting 4 Less

vB Forum Feeds by CinVin

Copyright © 2004-2018 JamToThis.com

vBulletin Skin developed by: vBStyles.com