JamToThis  
iTrader

Is your sharing ratio bad? Donate to our server costs and get upload credit!

Go Back   JamToThis > Bit Torrent Downloads > Video Bit Torrents

Closed Thread
 
Thread Tools Display Modes
  (#1) Old
Balito Balito is offline
Trader


Join Date: 01.11.09
User ID: 33760
Posts: 82

Trader Rating: 3

Rate This Trader!



UL: 169.97 GB
DL: 197.30 GB
Ratio: 0.86
Seed Points: 7,263.60

Sharing Ratio
Policy


Torrent Thank You's: 202
Thanked Posts: 69

Video - Pro Shot Motorhead - Wacken , 08 - 05 - 06 - 06.20.10, 05:02 AM

Artist:
Motorhead

Show or Bootleg Title:
Wacken , 08 - 05 - 06

Show Venue:
Germany , Wacken , Rockpalast

Source:
DVD - Pro Shot

Video Quality/Production Info:
Video , Audio : A

Audio/Video Specs:
Video attributes
ID : 224 (0xE0)
Format : MPEG Video
Format version : Version 2
Format profile : Main@Main
Format settings, BVOP : Yes
Format settings, Matrix : Default
Duration : 23mn 50s
Bit rate mode : Variable
Bit rate : 4 113 Kbps
Nominal bit rate : 9 224 Kbps
Width : 720 pixels
Height : 480 pixels
Display aspect ratio : 16:9
Frame rate : 29.970 fps
Standard : NTSC

Audio attributes
ID : 128 (0x80)
Format : AC-3
Format/Info : Audio Coding 3
Mode extension : CM (complete main)
Duration : 29s 851ms
Bit rate mode : Constant
Bit rate : 192 Kbps
Channel(s) : 2 channels
Channel positions : Front: L R
Sampling rate : 48.0 KHz
Stream size : 700 KiB (1%)

Format:
NTSC

Set List/Chapters:
Set List/Chapters:
01. Doctor Rock
02. Stay Clean
03. Love Me like a Reptile
04. Killers
05. Metropolis
06. Over The Top
07. No Class
08. I Got Mine
09. In The Name Of Tragedy
10. Dancing On Your Grave
11. Fast And Loose
12. Ramones
13. Goin' To Brazil
14. Killed By Death
15. Iron Fist
16. Ace Of Spades
17. Overkill

Checksums or Fingerprints:
# MD5 checksums generated by MD5summer (http://www.md5summer.org)
# Generated 15/6/2010 18:10:33

c05f73f7c0cbc59e9133bcd40402b62e *VIDEO_TS.BUP
c05f73f7c0cbc59e9133bcd40402b62e *VIDEO_TS.IFO
06951b48c7c08f5ac16eeacb6932165b *VIDEO_TS.VOB
62856d78e7b542f24ec2addcb3b355ad *VTS_01_0.BUP
62856d78e7b542f24ec2addcb3b355ad *VTS_01_0.IFO
a9b9a1c9f90296c12be792b9003cce90 *VTS_01_0.VOB
2098cecbc14a3866a6f651b8b0f17385 *VTS_01_1.VOB
f3d5a9bfaf2ade8daf256728a3762f9a *VTS_01_2.VOB
ba053c76674b5df75f64716367a0c778 *VTS_01_3.VOB

Menu : Yes
Chapters : Yes
Artwork : Yes

WDR rockpalast , see in you tube a preview:


http://www.youtube.com/watch?v=bc4YM-aPxZA

Be patience , my upload speed is slow
can´t seed 24/7

Lemmy Kills!
Attached Files
This post has an attachment which you could see if you were registered.
The Following 92 Members Thank Balito For This Torrent
Accept91, anguslead, BadassMOFO, Bastich, bleorg, chispi17, Controlburn, da666rocker, deaez, dlr67, Drsin, dynamosfo, ebro66, edenmills17, Eekhoornhoer, fhmc4, gatomike, georgedimopoulos, handsom212, HankIII, heavymetalal, Heubner, idculbertson, idiotsavant, ironfelix, jasma, javi1, jekke, Joxipur, kamike, karoumba, kimosabi, Kingpin, lemmyfr, lizzy666, lucas72, m4tt, Madluv, maniac669, markforce, mati_torrents, MattSyndrome, max1334, mazambo, metalgod666, MetallicatDave, Metalmad72, Michael999999, mies, Mistreated, mps, musicspeak, nikkivain, nikola, nnreduction, nonic, notman, oddjob35, ozob, Pat.Rivadeneira, paulbush, paulo metal, pishim, piter11, popareller1, princesinhamarieli, purple1969, rauli, Red Joker, rikino10, roberrober, Roger7, rynchan, sandler, satch24, satom9to5, sean_t_bone, sjdsjh6, smokin' might, Sorceror, SpeedKing_VF, splassen, steinman, TCB1976, twisted5150, Uforia, urfold, whatbiggreat, Y2G, YJK, zigzagzep
  (#2) Old
metalgod666 metalgod666 is offline
Trader Supreme


Join Date: 01.06.10
User ID: 42904
Posts: 567

Trader Rating: 1

Rate This Trader!



UL: 868.46 GB
DL: 878.71 GB
Ratio: 0.99
Seed Points: 33,317.80

Sharing Ratio
Policy


Torrent Thank You's: 0
Thanked Posts: 325

06.20.10, 06:46 AM

Thank you for the upload, mate!
  (#3) Old
musicspeak musicspeak is offline
Trader Supreme
 
musicspeak's Avatar


Join Date: 09.12.09
User ID: 40536
Posts: 388
Location: usa

Trader Rating: 1

Rate This Trader!



UL: 1.03 TB
DL: 578.75 GB
Ratio: 1.83
Seed Points: 849.20

Sharing Ratio
Policy


Torrent Thank You's: 0
Thanked Posts: 197

06.20.10, 07:22 AM

Thank you very much! Boy Motorhead has been filmed alot for tv the last few years..Great!
  (#4) Old
Heubner Heubner is offline
Trader God
 
Heubner's Avatar


Join Date: 09.01.07
User ID: 19994
Posts: 773
Location: USA

Trader Rating: 0

Rate This Trader!



UL: 1.24 TB
DL: 1.28 TB
Ratio: 0.97
Seed Points: 10,563.20

Sharing Ratio
Policy


Torrent Thank You's: 0
Thanked Posts: 339

06.20.10, 08:04 AM

Thanks for sharing!
  (#5) Old
robdave robdave is offline
Trader


Join Date: 02.05.08
User ID: 26459
Posts: 47

Trader Rating: 0

Rate This Trader!



UL: 101.08 GB
DL: 106.76 GB
Ratio: 0.95
Seed Points: 124.60

Sharing Ratio
Policy


Torrent Thank You's: 0
Thanked Posts: 30

06.20.10, 08:18 AM

Quote:
Originally Posted by Balito View Post
Artist:
Motorhead

Show or Bootleg Title:
Wacken , 08 - 05 - 06

Show Venue:
Germany , Wacken , Rockpalast

Source:
DVD - Pro Shot

Video Quality/Production Info:
Video , Audio : A

Audio/Video Specs:
Video attributes
ID : 224 (0xE0)
Format : MPEG Video
Format version : Version 2
Format profile : Main@Main
Format settings, BVOP : Yes
Format settings, Matrix : Default
Duration : 23mn 50s
Bit rate mode : Variable
Bit rate : 4 113 Kbps
Nominal bit rate : 9 224 Kbps
Width : 720 pixels
Height : 480 pixels
Display aspect ratio : 16:9
Frame rate : 29.970 fps
Standard : NTSC

Audio attributes
ID : 128 (0x80)
Format : AC-3
Format/Info : Audio Coding 3
Mode extension : CM (complete main)
Duration : 29s 851ms
Bit rate mode : Constant
Bit rate : 192 Kbps
Channel(s) : 2 channels
Channel positions : Front: L R
Sampling rate : 48.0 KHz
Stream size : 700 KiB (1%)

Format:
NTSC

Set List/Chapters:
Set List/Chapters:
01. Doctor Rock
02. Stay Clean
03. Love Me like a Reptile
04. Killers
05. Metropolis
06. Over The Top
07. No Class
08. I Got Mine
09. In The Name Of Tragedy
10. Dancing On Your Grave
11. Fast And Loose
12. Ramones
13. Goin' To Brazil
14. Killed By Death
15. Iron Fist
16. Ace Of Spades
17. Overkill

Checksums or Fingerprints:
# MD5 checksums generated by MD5summer (http://www.md5summer.org)
# Generated 15/6/2010 18:10:33

c05f73f7c0cbc59e9133bcd40402b62e *VIDEO_TS.BUP
c05f73f7c0cbc59e9133bcd40402b62e *VIDEO_TS.IFO
06951b48c7c08f5ac16eeacb6932165b *VIDEO_TS.VOB
62856d78e7b542f24ec2addcb3b355ad *VTS_01_0.BUP
62856d78e7b542f24ec2addcb3b355ad *VTS_01_0.IFO
a9b9a1c9f90296c12be792b9003cce90 *VTS_01_0.VOB
2098cecbc14a3866a6f651b8b0f17385 *VTS_01_1.VOB
f3d5a9bfaf2ade8daf256728a3762f9a *VTS_01_2.VOB
ba053c76674b5df75f64716367a0c778 *VTS_01_3.VOB

Menu : Yes
Chapters : Yes
Artwork : Yes

WDR rockpalast , see in you tube a preview:


http://www.youtube.com/watch?v=bc4YM-aPxZA

Be patience , my upload speed is slow
can´t seed 24/7

Lemmy Kills!
manda forte bali
  (#6) Old
Controlburn Controlburn is offline
Banned


Join Date: 05.05.10
User ID: 45229
Posts: 45

Trader Rating: 0

Rate This Trader!



UL: 132.83 GB
DL: 60.53 GB
Ratio: 2.19
Seed Points: 13.20

Sharing Ratio
Policy


Torrent Thank You's: 0
Thanked Posts: 25

06.20.10, 06:21 PM

Ntsc re-encode ...original wdr is pal



will compare

Last edited by Controlburn; 06.20.10 at 06:24 PM.
  (#7) Old
Balito Balito is offline
Trader


Join Date: 01.11.09
User ID: 33760
Posts: 82

Trader Rating: 3

Rate This Trader!



UL: 169.97 GB
DL: 197.30 GB
Ratio: 0.86
Seed Points: 7,263.60

Sharing Ratio
Policy


Torrent Thank You's: 202
Thanked Posts: 69

compare - 06.20.10, 07:45 PM

Quote:
Originally Posted by Controlburn View Post
Ntsc re-encode ...original wdr is pal



will compare
This is MY DVD for the Motorhead's Wacken Wdr , and not wdr original transmition.
Hope enjoy
  (#8) Old
purple1969 purple1969 is offline
Trader
 
purple1969's Avatar


Join Date: 04.02.08
User ID: 28031
Posts: 43

Trader Rating: 0

Rate This Trader!



UL: 565.59 GB
DL: 106.43 GB
Ratio: 5.31
Seed Points: 1,831.40

Sharing Ratio
Policy


Torrent Thank You's: 0
Thanked Posts: 30

06.20.10, 11:46 PM

Thanx! This will be cool...


It makes me forget the things I never said...
  (#9) Old
Bastich Bastich is offline
Feeble Minded Crap Weasel


Join Date: 11.27.04
User ID: 1052
Posts: 157
Location: Home of the NHL's Oilers

Trader Rating: 5

Rate This Trader!



UL: 426.52 GB
DL: 313.68 GB
Ratio: 1.36
Seed Points: 9,808.40

Sharing Ratio
Policy


Torrent Thank You's: 164
Thanked Posts: 59

06.22.10, 04:36 PM

Thank-you!!!!!
  (#10) Old
urfold urfold is offline
We Came To Rock
 
urfold's Avatar


Join Date: 09.03.09
User ID: 40325
Posts: 4,422
Location: Pandemonium

Trader Rating: 278

Rate This Trader!



UL: 12.64 TB
DL: 7.83 TB
Ratio: 1.61
Seed Points: 817,154.80

Sharing Ratio
Policy


Torrent Thank You's: 14,315
Thanked Posts: 2,174

06.23.10, 03:25 AM

Thanks a lot for your first upload




************************

Great New Lossless Torrent Bootleg Site
http://liveshownation.com/index.php
  (#11) Old
deaez deaez is offline
Trader God


Join Date: 08.12.06
User ID: 12481
Posts: 1,023

Trader Rating: 6

Rate This Trader!



UL: 1.54 TB
DL: 1.74 TB
Ratio: 0.88
Seed Points: 12,792.60

Sharing Ratio
Policy


Torrent Thank You's: 297
Thanked Posts: 748

06.23.10, 08:59 AM

Thanks

So many Motörhead shows lately, someone must have Rock Am Ring 2004 show?
  (#12) Old
Balito Balito is offline
Trader


Join Date: 01.11.09
User ID: 33760
Posts: 82

Trader Rating: 3

Rate This Trader!



UL: 169.97 GB
DL: 197.30 GB
Ratio: 0.86
Seed Points: 7,263.60

Sharing Ratio
Policy


Torrent Thank You's: 202
Thanked Posts: 69

06.23.10, 01:16 PM

Quote:
Originally Posted by deaez View Post
Thanks

So many Motörhead shows lately, someone must have Rock Am Ring 2004 show?
I HAVE ,and i will post!!!!!
  (#13) Old
paulo metal paulo metal is offline
Trader Supreme


Join Date: 10.11.08
User ID: 31499
Posts: 436

Trader Rating: 31

Rate This Trader!



UL: 703.73 GB
DL: 631.51 GB
Ratio: 1.11
Seed Points: 89,448.00

Sharing Ratio
Policy


Torrent Thank You's: 1,450
Thanked Posts: 207

06.24.10, 11:20 AM

THANKS for sharing
Closed Thread

Tags
05, 06, 08, motorhead, wacken

Thread Tools
Display Modes

Posting Rules
You may not post new threads
You may not post replies
You may not post attachments
You may not edit your posts

BB code is On
Smilies are On
[IMG] code is On
HTML code is Off

Forum Jump

Similar Threads
Thread Thread Starter Forum Replies Last Post
My bootlegs list - over 3000 titles sirDamian Trade Lists 21 11.19.13 08:10 AM
Looking for traders maguirre Trade Lists 10 03.04.11 04:56 PM
Motorhead - Wacken 08-05-06 Balito Video Bit Torrents 2 06.20.10 03:12 AM
My death/black/heavy metal DVD-video bootlegs Phyros Trade Lists 2 11.21.09 07:27 AM



3.jpg


Powered by vBulletin® Version 3.8.5
Copyright ©2000 - 2018, Jelsoft Enterprises Ltd.

WEB HOSTING: Hosting 4 Less

vB Forum Feeds by CinVin

Copyright © 2004-2018 JamToThis.com

vBulletin Skin developed by: vBStyles.com