View Single Post
  (#1) Old
ReaLDeaL ReaLDeaL is offline
Just Another Anti-hoarder
 
ReaLDeaL's Avatar


Join Date: 06.15.07
User ID: 17687
Posts: 1,556
Location: Tampa, Florida

Trader Rating: 160

Rate This Trader!



Sharing Ratio
Policy


Torrent Thank You's: 8,240
Thanked Posts: 590

Video - Pro Shot Bon Jovi (With Guests) - Tokyo, Japan - Dec. 31st, 1990 - 01.26.17, 06:47 AM

Artist:
Bon Jovi (With Guests)

Show or Bootleg Title:
Tokyo, Japan - Dec. 31st, 1990

Show Venue:
Tokyo Dome, Japan

Source:
DVD - Pro Shot

Video Quality/Production Info:
ReaL808

Audio/Video Specs:
Media Info:
General
Complete name : C:\Users\ReaLDeaL\Desktop\DVDs I Authored\Bon Jovi - 1990-12-31 - Tokyo, Japan (With Guests)\VIDEO_TS\VTS_01_1.VOB
Format : MPEG-PS
File size : 1 024 MiB
Duration : 17mn 23s
Overall bit rate mode : Variable
Overall bit rate : 8 229 Kbps
Writing library : encoded by TMPGEnc Authoring Works 4 Version. 4.0.7.32

Video
ID : 224 (0xE0)
Format : MPEG Video
Format version : Version 2
Format profile : Main@Main
Format settings, BVOP : Yes
Format settings, Matrix : Custom
Format settings, GOP : Variable
Format settings, picture structure : Frame
Duration : 17mn 23s
Bit rate mode : Variable
Bit rate : 7 842 Kbps
Maximum bit rate : 8 032 Kbps
Width : 720 pixels
Height : 480 pixels
Display aspect ratio : 16:9
Frame rate : 29.970 fps
Standard : NTSC
Color space : YUV
Chroma subsampling : 4:2:0
Bit depth : 8 bits
Scan type : Interlaced
Scan order : Top Field First
Compression mode : Lossy
Bits/(Pixel*Frame) : 0.757
Time code of first frame : 00:00:00:00
Time code source : Group of pictures header
Stream size : 976 MiB (95%)
Writing library : TMPGEnc Authoring Works 4 Version. 4.0.7.32
Color primaries : BT.601 NTSC
Transfer characteristics : BT.601
Matrix coefficients : BT.601

Audio
ID : 189 (0xBD)-128 (0x80)
Format : AC-3
Format/Info : Audio Coding 3
Mode extension : CM (complete main)
Format settings, Endianness : Big
Muxing mode : DVD-Video
Duration : 17mn 23s
Bit rate mode : Constant
Bit rate : 224 Kbps
Channel(s) : 2 channels
Channel positions : Front: L R
Sampling rate : 48.0 KHz
Compression mode : Lossy
Stream size : 27.9 MiB (3%)

Menu

Format:
NTSC

Set List/Chapters:
Bon Jovi:
01. Star Spangled Banner (Intro)
02. Tokyo Road
03. New Year's Countdown 1990-1991
04. You Give Love A Bad Name
05. Born To Be My Baby
06. I'll Be There For You
07. Blood On Blood
08. Livin' On A Prayer

Bonus:
01. Quireboys - 7 O'Clock
02. Skid Row - Youth Gone Wild
03. Cinderella - Shelter Me

Checksums or Fingerprints:
# MD5 checksums generated by MD5summer (http://www.md5summer.org)
# Generated 1/26/2017 10:29:37 AM

70b6254c33039885d83aec2170614b2c *VIDEO_TS/VIDEO_TS.BUP
70b6254c33039885d83aec2170614b2c *VIDEO_TS/VIDEO_TS.IFO
f3e07c3df70c303cc7a55b97f76f78d3 *VIDEO_TS/VIDEO_TS.VOB
06b98495b40bb46df6924d75433b1c37 *VIDEO_TS/VTS_01_0.BUP
06b98495b40bb46df6924d75433b1c37 *VIDEO_TS/VTS_01_0.IFO
613cf29913eaf01ddfe9067644e31297 *VIDEO_TS/VTS_01_0.VOB
59500f6bb6be69b4bc35fc0f0e2237c4 *VIDEO_TS/VTS_01_1.VOB
9ecd6fdaa9a33ff2e21007b8b6061e82 *VIDEO_TS/VTS_01_2.VOB
b511892b3a2fdfbba585e4acdc089169 *VIDEO_TS/VTS_01_3.VOB
39a9e46e856114ccd586524d654d3909 *VIDEO_TS/VTS_02_0.BUP
39a9e46e856114ccd586524d654d3909 *VIDEO_TS/VTS_02_0.IFO
1df4b03196a5e99ed3f46fbe6e5f4cb1 *VIDEO_TS/VTS_02_0.VOB
bf734a4958869e82dd65659f7d4a926d *VIDEO_TS/VTS_02_1.VOB

"Final Countdown" Re-authored

My Note:
This is a DVD that I've had authored for quite some time, but never shared publicly until now. It's not an upgrade in any other way but being authored with the guests separate from the headliner. It's a great proshot show that is pretty common in the trading pool, but this version is authored by me simply to separate the guests from the main act. I hope it's enjoyed.
Rock On!

Save Water, Drink Beer
Free Share/Trade Only
NEVER For Sale!!!
This was done quite some time ago, but is still one of my favorite authoring jobs. Enjoy the show.
Attached Images
This post has an attachment which you could see if you were registered.
This post has an attachment which you could see if you were registered.
This post has an attachment which you could see if you were registered.
This post has an attachment which you could see if you were registered.
This post has an attachment which you could see if you were registered.
Attached Files
This post has an attachment which you could see if you were registered.


Signature... My trade website: http://real808.webs.com/
Reply With Quote
The Following 44 Members Thank ReaLDeaL For This Torrent